找回密码

蓝光电影网

查看: 10|回复: 0

[动作] 长船/霸海夺金钟 The.Long.Ships.1964.720p.BluRay.x264-LATENCY 5.57GB

[复制链接]
蓝光币
382
发表于 2020-8-5 08:30:03 | 显示全部楼层 |阅读模式


◎译  名 长船 / 霸海夺金钟
◎片  名 The Long Ships
◎年  代 1964
◎产  地 英国 / 南斯拉夫
◎类  别 行动 / 冒险
◎语  言 英语
◎上映日期 1964-03-03
◎IMDb评分  6.1/10 from 2387 users
◎IMDb链接  https://www.imdb.com/title/tt0057259
◎豆瓣评分 0/10 from 0 users
◎豆瓣链接 https://movie.douban.com/subject/1300051/
◎片  长 126 分钟(美国)
◎导  演 杰克·卡迪夫 Jack Cardiff
◎编  剧 Berkely Mather / 贝弗利 克罗斯 (Beverley Cross)
◎主  演 理查德·威德马克 Richard Widmark
       西德尼·波蒂埃 Sidney Poitier
       鲁斯·谭柏林 Russ Tamblyn

◎标  签 英国 | 行动 | 冒险 | 理查德·威德马克 | 电影 | 历史 | 1970 | 1964
◎简  介

  
  暂无相关剧情先容
  1. Video
  2. ID                                       : 1
  3. Format                                   : AVC
  4. Format/Info                              : Advanced Video Codec
  5. Format profile                           : [email protected]
  6. Format settings                          : CABAC / 8 Ref Frames
  7. Format settings, CABAC                   : Yes
  8. Format settings, Reference frames        : 8 frames
  9. Codec ID                                 : V_MPEG4/ISO/AVC
  10. Duration                                 : 2 h 5 min
  11. Bit rate                                 : 5 694 kb/s
  12. Width                                    : 1 280 pixels
  13. Height                                   : 574 pixels
  14. Display aspect ratio                     : 2.25:1
  15. Frame rate mode                          : Constant
  16. Frame rate                               : 23.976 (24000/1001/189150) FPS
  17. Color space                              : YUV
  18. Chroma subsampling                       : 4:2:0
  19. Bit depth                                : 8 bits
  20. Scan type                                : Progressive
  21. Bits/(Pixel*Frame)                       : 0.323
  22. Stream size                              : 5.00 GiB (90%)
  23. Writing library                          : x264 core 161 r3018 db0d417
  24. Encoding settings                        : cabac=1 / ref=8 / deblock=1:-3:-3 / analyse=0x3:0x133 / me=umh / subme=9 / psy=1 / psy_rd=1.00:0.00 / mixed_ref=1 / me_range=32 / chroma_me=1 / trellis=2 / 8x8dct=1 / cqm=0 / deadzone=21,11 / fast_pskip=0 / chroma_qp_offset=-2 / threads=12 / lookahead_threads=2 / sliced_threads=0 / nr=0 / decimate=0 / interlaced=0 / bluray_compat=0 / constrained_intra=0 / bframes=9 / b_pyramid=2 / b_adapt=2 / b_bias=0 / direct=3 / weightb=1 / open_gop=0 / weightp=2 / keyint=250 / keyint_min=23 / scenecut=40 / intra_refresh=0 / rc=crf / mbtree=0 / crf=17.0 / qcomp=0.60 / qpmin=0 / qpmax=69 / qpstep=4 / ip_ratio=1.40 / pb_ratio=1.30 / aq=3:0.88
  25. Default                                  : Yes
  26. Forced                                   : No
  27. Color range                              : Limited
  28. Matrix coefficients                      : BT.709

  29. Audio
  30. ID                                       : 2
  31. Format                                   : AC-3
  32. Format/Info                              : Audio Coding 3
  33. Commercial name                          : Dolby Digital
  34. Codec ID                                 : A_AC3
  35. Duration                                 : 2 h 5 min
  36. Bit rate mode                            : Constant
  37. Bit rate                                 : 640 kb/s
  38. Channel(s)                               : 2 channels
  39. Channel layout                           : L R
  40. Sampling rate                            : 48.0 kHz
  41. Frame rate                               : 31.250 FPS (1536 SPF)
  42. Bit depth                                : 16 bits
  43. Compression mode                         : Lossy
  44. Stream size                              : 576 MiB (10%)
  45. Title                                    : English
  46. Language                                 : English
  47. Service kind                             : Complete Main
  48. Default                                  : No
  49. Forced                                   : No

  50. Text #1
  51. ID                                       : 3
  52. Format                                   : PGS
  53. Muxing mode                              : zlib
  54. Codec ID                                 : S_HDMV/PGS
  55. Codec ID/Info                            : Picture based subtitle format used on BDs/HD-DVDs
  56. Duration                                 : 2 h 4 min
  57. Bit rate                                 : 13 b/s
  58. Count of elements                        : 4
  59. Stream size                              : 12.6 KiB (0%)
  60. Title                                    : French
  61. Language                                 : French
  62. Default                                  : No
  63. Forced                                   : No

  64. Text #2
  65. ID                                       : 4
  66. Format                                   : PGS
  67. Muxing mode                              : zlib
  68. Codec ID                                 : S_HDMV/PGS
  69. Codec ID/Info                            : Picture based subtitle format used on BDs/HD-DVDs
  70. Duration                                 : 2 h 5 min
  71. Bit rate                                 : 19.4 kb/s
  72. Count of elements                        : 1752
  73. Stream size                              : 17.4 MiB (0%)
  74. Title                                    : French
  75. Language                                 : French
  76. Default                                  : No
  77. Forced                                   : No

  78. Menu
  79. 00:00:00.000                             : en:Chapter 01
  80. 00:10:13.738                             : en:Chapter 02
  81. 00:20:48.664                             : en:Chapter 03
  82. 00:28:56.109                             : en:Chapter 04
  83. 00:41:21.771                             : en:Chapter 05
  84. 00:53:20.989                             : en:Chapter 06
  85. 01:03:49.617                             : en:Chapter 07
  86. 01:13:20.104                             : en:Chapter 08
  87. 01:22:28.944                             : en:Chapter 09
  88. 01:31:21.267                             : en:Chapter 10
  89. 01:41:43.848                             : en:Chapter 11
  90. 01:52:57.729                             : en:Chapter 12
复制代码




                                       
                                       

                                       
                                       
                                       




回复

使用道具 举报

懒得打字嘛,点击右侧快捷回复 【右侧内容,后台自定义】
您需要登录后才可以回帖 登录 | 立即加入

本版积分规则

Archiver|小黑屋| 蓝光电影网 |网站地图

Copyright © 2021 Comsenz Inc. Powered by 蓝光电影网

蓝光电影网

本站内容由用户自主分享和转载自互联网,转载目的在于传递更多信息,并不代表本网赞同其观点和对其真实性负责。

如有侵权、违反国家法律政策行为,请联系我们,我们会第一时间及时清除和处理!

举报反馈邮箱:[email protected]

快速回复 返回顶部 返回列表