找回密码

蓝光电影网

查看: 22|回复: 0

[爱情] 血网边缘/刀锋边缘 Jagged.Edges.1985.1080p.BluRay.x264.DTS-FGT 9.70GB

[复制链接]
蓝光币
426
发表于 2020-9-28 10:58:07 | 显示全部楼层 |阅读模式


◎译  名 血网边沿/刀锋边沿
◎片  名 Jagged Edge
◎年  代 1985
◎产  地 美国
◎类  别 恋爱 / 悬疑 / 惊悚 / 犯罪
◎语  言 英语
◎上映日期 1985-10-04
◎IMDb评分  6.5/10 from 12934 users
◎IMDb链接  https://www.imdb.com/title/tt0089360/
◎豆瓣评分 6.1/10 from 161 users
◎豆瓣链接 https://movie.douban.com/subject/1293519/
◎片  长 108 分钟
◎导  演 理查德·马昆德 Richard Marquand
◎编  剧 乔·埃泽特哈斯 Joe Eszterhas
◎主  演 杰夫·布里吉斯 Jeff Bridges
       格伦·克洛斯 Glenn Close
       彼德·考约特 Peter Coyote
       兰斯·亨利克森 Lance Henriksen
       Mike Mitchell
◎标  签 悬疑 | 美国 | 美国电影 | 犯罪 | 惊悚 | JeffBridges | 1985 | GlennClose
◎简  介


  故事发生在旧金山的郊区,这边厢,杰克(杰夫·布里吉斯 Jeff Bridges 饰)尚且沉醉在妻子佩吉(Maria Mayenzet 饰)归天的悲痛当中,何处厢,他就已经成为了警方重点思疑的工具,由于佩吉身世于富有的家庭,而她的灭亡意味着她那使人垂涎的巨额遗产将落入杰克的手中。
  
  为了洗清身上的罪名,杰克雇佣了名叫泰迪(格伦·克洛斯 Glenn Close 饰)的女律师,在相处的进程中,杰克和泰迪之间的关系渐渐起头变得暗昧不明起来,在明智与感情之间,泰迪能否拨开迷雾看清究竟?她身旁的这个汉子,又能否真的如同看上去的那样明净无辜呢?在接近真相的同时,危险也渐渐来到了她的死后。
◎获奖情况
  第58届奥斯卡金像奖 ?(1986)
  最好男配角(提名) 罗伯特·劳吉亚
  1. Video
  2. ID                                       : 1
  3. Format                                   : AVC
  4. Format/Info                              : Advanced Video Codec
  5. Format profile                           : [email protected]
  6. Format settings, CABAC                   : Yes
  7. Format settings, ReFrames                : 4 frames
  8. Codec ID                                 : V_MPEG4/ISO/AVC
  9. Duration                                 : 1h 48mn
  10. Bit rate                                 : 11.5 Mbps
  11. Width                                    : 1 920 pixels
  12. Height                                   : 1 040 pixels
  13. Display aspect ratio                     : 1.85:1
  14. Frame rate mode                          : Constant
  15. Frame rate                               : 23.976 (24000/1001) fps
  16. Color space                              : YUV
  17. Chroma subsampling                       : 4:2:0
  18. Bit depth                                : 8 bits
  19. Scan type                                : Progressive
  20. Bits/(Pixel*Frame)                       : 0.240
  21. Stream size                              : 8.36 GiB (86%)
  22. Writing library                          : x264 core 148 r2694 3b70645
  23. Encoding settings                        : cabac=1 / ref=4 / deblock=1:-2:-2 / analyse=0x3:0x113 / me=umh / subme=7 / psy=1 / psy_rd=1.00:0.15 / mixed_ref=1 / me_range=16 / chroma_me=1 / trellis=1 / 8x8dct=1 / cqm=0 / deadzone=21,11 / fast_pskip=1 / chroma_qp_offset=-3 / threads=40 / lookahead_threads=3 / sliced_threads=0 / nr=0 / decimate=1 / interlaced=0 / bluray_compat=0 / constrained_intra=0 / bframes=3 / b_pyramid=2 / b_adapt=2 / b_bias=0 / direct=3 / weightb=1 / open_gop=0 / weightp=2 / keyint=250 / keyint_min=25 / scenecut=40 / intra_refresh=0 / rc_lookahead=50 / rc=abr / mbtree=1 / bitrate=11500 / ratetol=1.0 / qcomp=0.60 / qpmin=0 / qpmax=69 / qpstep=4 / vbv_maxrate=31250 / vbv_bufsize=31250 / nal_hrd=none / filler=0 / ip_ratio=1.40 / aq=1:1.00
  24. Language                                 : English
  25. Default                                  : Yes
  26. Forced                                   : No
  27. Audio
  28. ID                                       : 2
  29. Format                                   : DTS
  30. Format/Info                              : Digital Theater Systems
  31. Mode                                     : 16
  32. Format settings, Endianness              : Big
  33. Codec ID                                 : A_DTS
  34. Duration                                 : 1h 48mn
  35. Bit rate mode                            : Constant
  36. Bit rate                                 : 1 509 Kbps
  37. Channel(s)                               : 6 channels
  38. Channel positions                        : Front: L C R, Side: L R, LFE
  39. Sampling rate                            : 48.0 KHz
  40. Frame rate                               : 93.750 fps (512 spf)
  41. Bit depth                                : 24 bits
  42. Compression mode                         : Lossy
  43. Stream size                              : 1.15 GiB (12%)
  44. Language                                 : English
  45. Default                                  : Yes
  46. Forced                                   : No
  47. Text
  48. ID                                       : 3
  49. Format                                   : UTF-8
  50. Codec ID                                 : S_TEXT/UTF8
  51. Codec ID/Info                            : UTF-8 Plain Text
  52. Language                                 : English
  53. Default                                  : Yes
  54. Forced                                   : No
  55. Menu
  56. 00:00:00.000                             : en:00:00:00.000
  57. 00:07:52.806                             : en:00:07:52.806
  58. 00:14:59.774                             : en:00:14:59.774
  59. 00:19:36.425                             : en:00:19:36.425
  60. 00:28:40.135                             : en:00:28:40.135
  61. 00:39:55.184                             : en:00:39:55.184
  62. 00:41:41.499                             : en:00:41:41.499
  63. 00:48:52.138                             : en:00:48:52.138
  64. 00:59:13.216                             : en:00:59:13.216
  65. 01:02:15.649                             : en:01:02:15.649
  66. 01:08:43.745                             : en:01:08:43.745
  67. 01:15:06.377                             : en:01:15:06.377
  68. 01:21:09.948                             : en:01:21:09.948
  69. 01:26:17.130                             : en:01:26:17.130
  70. 01:35:22.258                             : en:01:35:22.258
  71. 01:42:20.301                             : en:01:42:20.301
复制代码







                                       
                                       

                                       
                                       
                                       




回复

使用道具 举报

懒得打字嘛,点击右侧快捷回复 【右侧内容,后台自定义】
您需要登录后才可以回帖 登录 | 立即加入

本版积分规则

Archiver|小黑屋| 蓝光电影网 |网站地图

Copyright © 2021 Comsenz Inc. Powered by 蓝光电影网

蓝光电影网

本站内容由用户自主分享和转载自互联网,转载目的在于传递更多信息,并不代表本网赞同其观点和对其真实性负责。

如有侵权、违反国家法律政策行为,请联系我们,我们会第一时间及时清除和处理!

举报反馈邮箱:[email protected]

快速回复 返回顶部 返回列表