找回密码

蓝光电影网

查看: 21|回复: 0

[动作] 深海狂鲨3 Deep.Blue.Sea.3.2020.720p.BluRay.x264-YOL0W 3.35GB

[复制链接]
蓝光币
426
发表于 2020-7-31 08:41:10 | 显示全部楼层 |阅读模式


◎译  名 深海狂鲨3
◎片  名 Deep Blue Sea 3
◎年  代 2020
◎产  地 美国
◎类  别 行动 / 科幻 / 可骇
◎语  言 英语
◎上映日期 2020-07-28(美国)
◎IMDb链接  https://www.imdb.com/title/tt11946300
◎豆瓣评分 0/10 from 0 users
◎豆瓣链接 https://movie.douban.com/subject/35101514/
◎片  长 99分钟
◎导  演 约翰·波罗 John Pogue
◎编  剧 德克·布莱克曼 Dirk Blackman
◎主  演 纳撒尼尔·布佐尼克 Nathaniel Buzolic
       Emerson Brooks
       布伦·福斯特 Bren Foster
       苍丽娜 Reina Aoi
       Alex Bhat
       Siya Mayola
       Ernest St Claire
       DeVille Vannik
       Brashaad Mayweather
       坦妮娅·雷蒙德 Tania Raymonde
       欧内斯特·圣·克莱尔 Ernest St.Clair

◎标  签 2020 | 美国 | 线上
◎简  介

  
  Dr. Emma Collins and her team are spending their third summer on the island of Little Happy studying the effect of climate change on the great white sharks who come to the nearby nursery every year to give birth. Along with the last two inhabitants of this former fishing village, their peaceful life is disrupted when a "scientific" team led by her ex-boyfriend and marine biologist Richard show up looking for three bull sharks who we soon learn aren't just any bull sharks.
  1. Video
  2. ID                                       : 1
  3. Format                                   : AVC
  4. Format/Info                              : Advanced Video Codec
  5. Format profile                           : [email protected]
  6. Format settings                          : CABAC / 8 Ref Frames
  7. Format settings, CABAC                   : Yes
  8. Format settings, Reference frames        : 8 frames
  9. Codec ID                                 : V_MPEG4/ISO/AVC
  10. Duration                                 : 1 h 40 min
  11. Bit rate                                 : 4 077 kb/s
  12. Width                                    : 1 280 pixels
  13. Height                                   : 534 pixels
  14. Display aspect ratio                     : 2.40:1
  15. Frame rate mode                          : Constant
  16. Frame rate                               : 23.976 (24000/1001/189150) FPS
  17. Color space                              : YUV
  18. Chroma subsampling                       : 4:2:0
  19. Bit depth                                : 8 bits
  20. Scan type                                : Progressive
  21. Bits/(Pixel*Frame)                       : 0.249
  22. Stream size                              : 2.85 GiB (85%)
  23. Writing library                          : x264 core 161 r3018 db0d417
  24. Encoding settings                        : cabac=1 / ref=8 / deblock=1:-3:-3 / analyse=0x3:0x133 / me=umh / subme=9 / psy=1 / psy_rd=1.00:0.00 / mixed_ref=1 / me_range=24 / chroma_me=1 / trellis=2 / 8x8dct=1 / cqm=0 / deadzone=21,11 / fast_pskip=0 / chroma_qp_offset=-2 / threads=17 / lookahead_threads=1 / sliced_threads=0 / nr=0 / decimate=1 / interlaced=0 / bluray_compat=0 / constrained_intra=0 / bframes=3 / b_pyramid=2 / b_adapt=2 / b_bias=0 / direct=3 / weightb=1 / open_gop=0 / weightp=2 / keyint=250 / keyint_min=23 / scenecut=40 / intra_refresh=0 / rc=crf / mbtree=0 / crf=19.5 / qcomp=0.60 / qpmin=0 / qpmax=69 / qpstep=4 / ip_ratio=1.40 / pb_ratio=1.30 / aq=3:0.85
  25. Default                                  : Yes
  26. Forced                                   : No
  27. Color range                              : Limited
  28. Matrix coefficients                      : BT.709

  29. Audio
  30. ID                                       : 2
  31. Format                                   : AC-3
  32. Format/Info                              : Audio Coding 3
  33. Commercial name                          : Dolby Digital
  34. Codec ID                                 : A_AC3
  35. Duration                                 : 1 h 40 min
  36. Bit rate mode                            : Constant
  37. Bit rate                                 : 640 kb/s
  38. Channel(s)                               : 6 channels
  39. Channel layout                           : L R C LFE Ls Rs
  40. Sampling rate                            : 48.0 kHz
  41. Frame rate                               : 31.250 FPS (1536 SPF)
  42. Bit depth                                : 16 bits
  43. Compression mode                         : Lossy
  44. Stream size                              : 459 MiB (13%)
  45. Title                                    : English
  46. Language                                 : English
  47. Service kind                             : Complete Main
  48. Default                                  : Yes
  49. Forced                                   : No

  50. Text #1
  51. ID                                       : 3
  52. Format                                   : PGS
  53. Muxing mode                              : zlib
  54. Codec ID                                 : S_HDMV/PGS
  55. Codec ID/Info                            : Picture based subtitle format used on BDs/HD-DVDs
  56. Duration                                 : 1 h 37 min
  57. Bit rate                                 : 32.0 kb/s
  58. Count of elements                        : 2460
  59. Stream size                              : 22.3 MiB (1%)
  60. Language                                 : English
  61. Default                                  : No
  62. Forced                                   : No

  63. Text #2
  64. ID                                       : 4
  65. Format                                   : PGS
  66. Muxing mode                              : zlib
  67. Codec ID                                 : S_HDMV/PGS
  68. Codec ID/Info                            : Picture based subtitle format used on BDs/HD-DVDs
  69. Duration                                 : 1 h 38 min
  70. Bit rate                                 : 26.2 kb/s
  71. Count of elements                        : 2088
  72. Stream size                              : 18.4 MiB (1%)
  73. Language                                 : French
  74. Default                                  : No
  75. Forced                                   : No

  76. Text #3
  77. ID                                       : 5
  78. Format                                   : PGS
  79. Muxing mode                              : zlib
  80. Codec ID                                 : S_HDMV/PGS
  81. Codec ID/Info                            : Picture based subtitle format used on BDs/HD-DVDs
  82. Duration                                 : 1 h 37 min
  83. Bit rate                                 : 34.1 kb/s
  84. Count of elements                        : 2460
  85. Stream size                              : 23.8 MiB (1%)
  86. Language                                 : German
  87. Default                                  : No
  88. Forced                                   : No

  89. Text #4
  90. ID                                       : 6
  91. Format                                   : PGS
  92. Muxing mode                              : zlib
  93. Codec ID                                 : S_HDMV/PGS
  94. Codec ID/Info                            : Picture based subtitle format used on BDs/HD-DVDs
  95. Duration                                 : 1 h 38 min
  96. Bit rate                                 : 28.2 kb/s
  97. Count of elements                        : 2090
  98. Stream size                              : 19.9 MiB (1%)
  99. Language                                 : Spanish
  100. Default                                  : No
  101. Forced                                   : No

  102. Text #5
  103. ID                                       : 7
  104. Format                                   : PGS
  105. Muxing mode                              : zlib
  106. Codec ID                                 : S_HDMV/PGS
  107. Codec ID/Info                            : Picture based subtitle format used on BDs/HD-DVDs
  108. Duration                                 : 1 h 38 min
  109. Bit rate                                 : 24.2 kb/s
  110. Count of elements                        : 2068
  111. Stream size                              : 17.0 MiB (0%)
  112. Language                                 : Danish
  113. Default                                  : No
  114. Forced                                   : No

  115. Text #6
  116. ID                                       : 8
  117. Format                                   : PGS
  118. Muxing mode                              : zlib
  119. Codec ID                                 : S_HDMV/PGS
  120. Codec ID/Info                            : Picture based subtitle format used on BDs/HD-DVDs
  121. Duration                                 : 1 h 38 min
  122. Bit rate                                 : 26.8 kb/s
  123. Count of elements                        : 2076
  124. Stream size                              : 18.8 MiB (1%)
  125. Language                                 : Finnish
  126. Default                                  : No
  127. Forced                                   : No

  128. Text #7
  129. ID                                       : 9
  130. Format                                   : PGS
  131. Muxing mode                              : zlib
  132. Codec ID                                 : S_HDMV/PGS
  133. Codec ID/Info                            : Picture based subtitle format used on BDs/HD-DVDs
  134. Duration                                 : 1 h 38 min
  135. Bit rate                                 : 25.2 kb/s
  136. Count of elements                        : 2086
  137. Stream size                              : 17.7 MiB (1%)
  138. Language                                 : Norwegian
  139. Default                                  : No
  140. Forced                                   : No

  141. Text #8
  142. ID                                       : 10
  143. Format                                   : PGS
  144. Muxing mode                              : zlib
  145. Codec ID                                 : S_HDMV/PGS
  146. Codec ID/Info                            : Picture based subtitle format used on BDs/HD-DVDs
  147. Duration                                 : 1 h 38 min
  148. Bit rate                                 : 28.0 kb/s
  149. Count of elements                        : 2044
  150. Stream size                              : 19.7 MiB (1%)
  151. Language                                 : Swedish
  152. Default                                  : No
  153. Forced                                   : No

  154. Text #9
  155. ID                                       : 11
  156. Format                                   : PGS
  157. Muxing mode                              : zlib
  158. Codec ID                                 : S_HDMV/PGS
  159. Codec ID/Info                            : Picture based subtitle format used on BDs/HD-DVDs
  160. Duration                                 : 57 min 41 s
  161. Bit rate                                 : 107 b/s
  162. Count of elements                        : 4
  163. Stream size                              : 45.6 KiB (0%)
  164. Language                                 : French
  165. Default                                  : No
  166. Forced                                   : No

  167. Text #10
  168. ID                                       : 12
  169. Format                                   : PGS
  170. Muxing mode                              : zlib
  171. Codec ID                                 : S_HDMV/PGS
  172. Codec ID/Info                            : Picture based subtitle format used on BDs/HD-DVDs
  173. Duration                                 : 57 min 41 s
  174. Bit rate                                 : 100 b/s
  175. Count of elements                        : 4
  176. Stream size                              : 42.3 KiB (0%)
  177. Language                                 : Spanish
  178. Default                                  : No
  179. Forced                                   : No

  180. Text #11
  181. ID                                       : 13
  182. Format                                   : PGS
  183. Muxing mode                              : zlib
  184. Codec ID                                 : S_HDMV/PGS
  185. Codec ID/Info                            : Picture based subtitle format used on BDs/HD-DVDs
  186. Duration                                 : 2 s 85 ms
  187. Bit rate                                 : 56.7 kb/s
  188. Count of elements                        : 2
  189. Stream size                              : 14.4 KiB (0%)
  190. Language                                 : German
  191. Default                                  : No
  192. Forced                                   : No

  193. Menu
  194. 00:00:00.000                             : en:Chapter 01
  195. 00:09:50.006                             : en:Chapter 02
  196. 00:19:15.154                             : en:Chapter 03
  197. 00:28:50.270                             : en:Chapter 04
  198. 00:38:06.034                             : en:Chapter 05
  199. 00:45:09.290                             : en:Chapter 06
  200. 00:54:28.891                             : en:Chapter 07
  201. 01:04:14.142                             : en:Chapter 08
  202. 01:14:12.406                             : en:Chapter 09
  203. 01:23:10.819                             : en:Chapter 10
  204. 01:32:48.229                             : en:Chapter 11
复制代码




                                       
                                       

                                       
                                       
                                       




回复

使用道具 举报

懒得打字嘛,点击右侧快捷回复 【右侧内容,后台自定义】
您需要登录后才可以回帖 登录 | 立即加入

本版积分规则

Archiver|小黑屋| 蓝光电影网 |网站地图

Copyright © 2021 Comsenz Inc. Powered by 蓝光电影网

蓝光电影网

本站内容由用户自主分享和转载自互联网,转载目的在于传递更多信息,并不代表本网赞同其观点和对其真实性负责。

如有侵权、违反国家法律政策行为,请联系我们,我们会第一时间及时清除和处理!

举报反馈邮箱:[email protected]

快速回复 返回顶部 返回列表