找回密码

蓝光电影网

查看: 26|回复: 0

[恐怖] 死二月 Deathcember.2019.1080p.BluRay.x264.DTS-HD.MA.5.1-FGT 15.78GB

[复制链接]
蓝光币
426
发表于 2020-12-5 09:24:29 | 显示全部楼层 |阅读模式


◎译  名 死仲春
◎片  名 Deathcember
◎年  代 2019
◎产  地 德国
◎类  别 可骇
◎上映日期 2019-10-31(圣塞瓦斯蒂安可骇和空想电影节) / 2020-12-04(德国)
◎IMDb评分  4.4/10 from 228 users
◎IMDb链接  https://www.imdb.com/title/tt9301428/
◎豆瓣评分 /10 from 0 users
◎豆瓣链接 https://movie.douban.com/subject/30429857/
◎导  演 鲁杰罗·德奥达托 Ruggero Deodato / Sonia Escolano / 伊萨克·厄兹本 Isaac Ezban / 特伦特·海伽 Trent Haaga / 李尚宇 Sang-woo Lee / 宝拉雅娜·麦金托什 Pollyanna McIntosh / 拉齐·马凯 Lucky McKee / 朱利安·理查德 Julian Richards / Milan Todorovic / Michael Varrati / 拉扎尔·博德罗扎 Lazar Bodro?a
◎标  签 可骇 | 血腥 | 德国 | 过期血浆片 | 美国 | 没看完 | 德国电影 | 笑剧
◎简  介


  A collection of 24 films that take a look at the dark side of the festive season. 24 international directors with the most diverse ideas and styles; linked by short animated segments that deal with the Advent calendar itself.
  1. Video
  2. ID                                       : 1
  3. Format                                   : AVC
  4. Format/Info                              : Advanced Video Codec
  5. Format profile                           : [email protected]
  6. Format settings                          : CABAC / 4 Ref Frames
  7. Format settings, CABAC                   : Yes
  8. Format settings, Reference frames        : 4 frames
  9. Codec ID                                 : V_MPEG4/ISO/AVC
  10. Duration                                 : 2 h 25 min
  11. Bit rate                                 : 11.5 Mb/s
  12. Width                                    : 1 920 pixels
  13. Height                                   : 1 080 pixels
  14. Display aspect ratio                     : 16:9
  15. Frame rate mode                          : Constant
  16. Frame rate                               : 24.000 FPS
  17. Color space                              : YUV
  18. Chroma subsampling                       : 4:2:0
  19. Bit depth                                : 8 bits
  20. Scan type                                : Progressive
  21. Bits/(Pixel*Frame)                       : 0.231
  22. Stream size                              : 11.7 GiB (74%)
  23. Title                                    : Deathcember.2019.1080p.BluRay.x264.DTS-HD.MA.5.1-FGT
  24. Writing library                          : x264 core 148 r2748 97eaef2
  25. Encoding settings                        : cabac=1 / ref=4 / deblock=1:-2:-2 / analyse=0x3:0x113 / me=umh / subme=9 / psy=1 / psy_rd=1.00:0.15 / mixed_ref=1 / me_range=16 / chroma_me=1 / trellis=2 / 8x8dct=1 / cqm=0 / deadzone=21,11 / fast_pskip=1 / chroma_qp_offset=-3 / threads=72 / lookahead_threads=3 / sliced_threads=0 / nr=0 / decimate=1 / interlaced=0 / bluray_compat=0 / constrained_intra=0 / bframes=3 / b_pyramid=2 / b_adapt=1 / b_bias=0 / direct=3 / weightb=1 / open_gop=0 / weightp=2 / keyint=250 / keyint_min=25 / scenecut=40 / intra_refresh=0 / rc_lookahead=50 / rc=2pass / mbtree=1 / bitrate=11500 / ratetol=1.0 / qcomp=0.60 / qpmin=0 / qpmax=69 / qpstep=4 / cplxblur=20.0 / qblur=0.5 / vbv_maxrate=31250 / vbv_bufsize=31250 / nal_hrd=none / filler=0 / ip_ratio=1.40 / aq=1:1.00
  26. Language                                 : English
  27. Default                                  : Yes
  28. Forced                                   : No
  29. Audio
  30. ID                                       : 2
  31. ID in the original source medium         : 4353 (0x1101)
  32. Format                                   : DTS XLL
  33. Format/Info                              : Digital Theater Systems
  34. Commercial name                          : DTS-HD Master Audio
  35. Codec ID                                 : A_DTS
  36. Duration                                 : 2 h 25 min
  37. Bit rate mode                            : Variable
  38. Bit rate                                 : 3 999 kb/s
  39. Channel(s)                               : 6 channels
  40. Channel layout                           : C L R Ls Rs LFE
  41. Sampling rate                            : 48.0 kHz
  42. Frame rate                               : 93.750 FPS (512 SPF)
  43. Bit depth                                : 24 bits
  44. Compression mode                         : Lossless
  45. Stream size                              : 4.07 GiB (26%)
  46. Title                                    : Deathcember.2019.1080p.BluRay.x264.DTS-HD.MA.5.1-FGT
  47. Language                                 : English
  48. Default                                  : Yes
  49. Forced                                   : No
  50. Original source medium                   : Blu-ray
  51. Text #1
  52. ID                                       : 3
  53. Format                                   : UTF-8
  54. Codec ID                                 : S_TEXT/UTF8
  55. Codec ID/Info                            : UTF-8 Plain Text
  56. Duration                                 : 2 h 10 min
  57. Bit rate                                 : 5 b/s
  58. Count of elements                        : 200
  59. Stream size                              : 5.19 KiB (0%)
  60. Title                                    : FORCED
  61. Language                                 : English
  62. Default                                  : Yes
  63. Forced                                   : Yes
  64. Text #2
  65. ID                                       : 4
  66. Format                                   : UTF-8
  67. Codec ID                                 : S_TEXT/UTF8
  68. Codec ID/Info                            : UTF-8 Plain Text
  69. Duration                                 : 2 h 22 min
  70. Bit rate                                 : 25 b/s
  71. Count of elements                        : 946
  72. Stream size                              : 26.5 KiB (0%)
  73. Language                                 : English
  74. Default                                  : No
  75. Forced                                   : No
  76. Menu
  77. 00:00:00.000                             : en:Chapter 01
  78. 00:02:24.291                             : en:Chapter 02
  79. 00:05:47.750                             : en:Chapter 03
  80. 00:10:34.416                             : en:Chapter 04
  81. 00:15:42.916                             : en:Chapter 05
  82. 00:21:52.125                             : en:Chapter 06
  83. 00:26:59.250                             : en:Chapter 07
  84. 00:31:31.333                             : en:Chapter 08
  85. 00:36:29.666                             : en:Chapter 09
  86. 00:41:39.791                             : en:Chapter 10
  87. 00:47:16.000                             : en:Chapter 11
  88. 00:52:58.083                             : en:Chapter 12
  89. 00:57:25.416                             : en:Chapter 13
  90. 01:02:28.125                             : en:Chapter 14
  91. 01:07:37.333                             : en:Chapter 15
  92. 01:11:45.208                             : en:Chapter 16
  93. 01:14:27.625                             : en:Chapter 17
  94. 01:20:06.708                             : en:Chapter 18
  95. 01:25:35.625                             : en:Chapter 19
  96. 01:31:43.958                             : en:Chapter 20
  97. 01:37:19.500                             : en:Chapter 21
  98. 01:43:06.291                             : en:Chapter 22
  99. 01:48:11.625                             : en:Chapter 23
  100. 01:53:58.708                             : en:Chapter 24
  101. 01:59:06.208                             : en:Chapter 25
  102. 02:04:14.166                             : en:Chapter 26
  103. 02:08:53.541                             : en:Chapter 27
  104. 02:20:26.750                             : en:Chapter 28
  105. 02:25:20.791                             : en:Chapter 29
复制代码






                                       
                                       

                                       
                                       
                                       




回复

使用道具 举报

懒得打字嘛,点击右侧快捷回复 【右侧内容,后台自定义】
您需要登录后才可以回帖 登录 | 立即加入

本版积分规则

Archiver|小黑屋| 蓝光电影网 |网站地图

Copyright © 2021 Comsenz Inc. Powered by 蓝光电影网

蓝光电影网

本站内容由用户自主分享和转载自互联网,转载目的在于传递更多信息,并不代表本网赞同其观点和对其真实性负责。

如有侵权、违反国家法律政策行为,请联系我们,我们会第一时间及时清除和处理!

举报反馈邮箱:[email protected]

快速回复 返回顶部 返回列表