找回密码

蓝光电影网

查看: 51|回复: 0

[科幻] 世界之战/世界大战 War.Of.The.Worlds.2005.1080p.BluRay.x264-LCHD 8.77GB

[复制链接]
蓝光币
519
发表于 2020-11-9 08:44:37 | 显示全部楼层 |阅读模式


◎译  名 天下之战/天下大战/宇宙战争/强战天下(港)/星际战争
◎片  名 War of the Worlds
◎年  代 2005
◎产  地 美国
◎类  别 科幻 / 惊悚 / 冒险
◎语  言 英语
◎上映日期 2005-06-29(美国) / 2005-08-25(中国大陆)
◎IMDb评分  6.5/10 from 411579 users
◎IMDb链接  https://www.imdb.com/title/tt0407304/
◎豆瓣评分 6.6/10 from 71226 users
◎豆瓣链接 https://movie.douban.com/subject/1309044/
◎片  长 116分钟
◎导  演 史蒂文·斯皮尔伯格 Steven Spielberg
◎编  剧 乔什·弗莱德曼 Josh Friedman / 大卫·凯普 David Koepp / 赫伯特·乔治·威尔斯 H.G. Wells
◎主  演 汤姆·克鲁斯 Tom Cruise
       达科塔·范宁 Dakota Fanning
       米兰达·奥图 Miranda Otto
       贾斯汀·查特文 Justin Chatwin
       蒂姆·罗宾斯 Tim Robbins
       瑞克·冈萨雷斯 Rick Gonzalez
       尤尔·瓦斯克斯 Yul Vazquez
       莱尼·维尼托 Lenny Venito
       丽萨·安·沃尔特 Lisa Ann Walter
       安·鲁滨逊 Ann Robinson
       吉恩·巴瑞 Gene Barry
       大卫·阿伦·伯施理 David Alan Basche
       罗兹·亚布拉姆斯 Roz Abrams
       迈克尔·布朗李 Michael Brownlee
       卡米莉亚·莫内特 Camillia Monet
       艾米·莱安 Amy Ryan
       丹尼·霍奇 Danny Hoch
       朱丽叶·怀特 Julie White
       丹·茨斯基 Dan Ziskie
       罗伯特·奇基尼 Robert Cicchini
       拉法埃尔·萨尔迪纳 Rafael Sardina
       克丽斯汀·尼尔森 Kirsten Nelson
       米夏琳娜·阿尔门多 Michalina Almindo
       泰·辛普金斯 Ty Simpkins
       肯特·法尔考 Kent Faulcon
       Joseph Benjamin Stewart
       丹尼尔·艾瑞克·高德 Daniel Eric Gold
       Art Chudabala
       托尼·德文 Tony Devon
       摩根·弗里曼 Morgan Freeman
       Ed Vassallo
       贝琦·安·贝克 Becky Ann Baker
       John Michael Bolger
       维托·达布罗西奥 Vito D'Ambrosio
       乔治·费舍尔 George Fisher
       塔卡尤·费舍尔 Takayo Fischer
       Riley G. Matthews Jr.
       彼得·格雷蒂 Peter Gerety
       劳里·约翰逊 Lauri Johnson
       哥伦布·绍特 Columbus Short
       Tommy Guiffre
       Tanda Mercer
       珊娜·科林斯 Shanna Collins
       詹姆斯·杜蒙特 James DuMont
       Paul Bunnell
       吉姆·汉纳 Jim Hanna
       查宁·塔图姆 Channing Tatum
       斯蒂芬·格维顿 Stephen Gevedon
       丹尼尔·弗兰泽兹 Daniel Franzese
       亚当·拉扎尔-怀特 Adam Lazarre-White
       Mark Manley
       Gerald Blakey
       Ed Schiff
       Nicholas Mastromarco
       Sherman T. Edwards Jr.
       Emily Nilsen
       班尼·恰拉麦罗 Benny Ciaramello
       Stella Croxon
       Vladislav Kozlov
       大卫·哈伯 David Harbour
       Alan Kemper Armani
       Sean Marrinan
       Peter Appleseed
       Scott Norris
       A.J. Presley
       Chuck Gerena
       约瑟夫·德博纳 Joseph DeBona
       特拉维斯·阿隆·韦德 Travis Aaron Wade
       Ricky Luna
       登普西·帕皮恩 Dempsey Pappion
       Athena Stamos
       Ambi Daniel
       Christopher Gilbertson
       Phillip Gramm
       Crystal Dawne
       Ingrid Johnson
       Freddie Johnson
       Dalon Huntington
       Stacy Ann Wilkins
       John N. Morales
       戴维·基尔 David Gere
       Lorelei Llee
◎标  签 科幻 | 灾难 | 美国 | 斯皮尔伯格 | 汤姆·克鲁斯 | 美国电影 | TomCruise | StevenSpielberg
◎简  介


  雷?费瑞尔(汤姆?克鲁斯 Tom Cruise 饰)和妻子仳离了,一儿一女都跟母亲生活——由于他的的贪玩懒惰,疏忽义务,这个家庭才如此支离破裂。一场外星人入侵的灾难却让他们重新建立起密切的的关系。
  
  此日妻子忙碌,只好把后代交给雷照顾。电闪雷鸣天气昏暗,一切似乎有些异常。 公然,马路上鲜明一个庞大的三脚飞翔器掘地而起,邪恶的火星人帮衬了这个原本安静的小镇。人们四周流亡,雷也带着女儿奔走逃命,起头了生死历险。政府想尽法子对于外星人,却频频失利,全部天下都堕入了发急傍边。
  
  有了父爱的本能,常日不务正业的父亲变得勇敢顽强,庇护后代成了他支持他的动力和信心。
◎获奖情况
  第78届奥斯卡金像奖 ?(2006)
  最好视觉结果(提名) 巴勃罗·赫尔曼?/?丹尼斯·穆伦?/?兰迪·杜特拉?/?丹尼尔·萨迪克
  最好混音(提名) 安迪·尼尔森?/?安娜·贝尔莫?/?朗·贾金斯
  最好音效剪辑(提名) 理查德·金
  
  第15届MTV电影奖 ?(2006)
  MTV电影奖最好惊骇戏表演(提名) 达科塔·范宁
  1. Video
  2. ID                                       : 1
  3. Format                                   : AVC
  4. Format/Info                              : Advanced Video Codec
  5. Format profile                           : [email protected]
  6. Format settings                          : CABAC / 4 Ref Frames
  7. Format settings, CABAC                   : Yes
  8. Format settings, Reference frames        : 4 frames
  9. Codec ID                                 : V_MPEG4/ISO/AVC
  10. Duration                                 : 1 h 56 min
  11. Bit rate                                 : 9 231 kb/s
  12. Width                                    : 1 920 pixels
  13. Height                                   : 1 040 pixels
  14. Display aspect ratio                     : 1.85:1
  15. Frame rate mode                          : Constant
  16. Frame rate                               : 23.976 (24000/1001/189150) FPS
  17. Color space                              : YUV
  18. Chroma subsampling                       : 4:2:0
  19. Bit depth                                : 8 bits
  20. Scan type                                : Progressive
  21. Bits/(Pixel*Frame)                       : 0.193
  22. Stream size                              : 7.33 GiB (84%)
  23. Writing library                          : x264 core 94 r1583 7608d73
  24. Encoding settings                        : cabac=1 / ref=4 / deblock=1:-1:-1 / analyse=0x3:0x113 / me=umh / subme=7 / psy=1 / psy_rd=1.00:0.00 / mixed_ref=1 / me_range=16 / chroma_me=1 / trellis=2 / 8x8dct=1 / cqm=0 / deadzone=21,11 / fast_pskip=1 / chroma_qp_offset=-2 / threads=12 / sliced_threads=0 / nr=0 / decimate=1 / interlaced=0 / constrained_intra=0 / bframes=3 / b_pyramid=2 / b_adapt=2 / b_bias=0 / direct=3 / weightb=1 / weightp=2 / keyint=250 / keyint_min=25 / scenecut=40 / intra_refresh=0 / rc_lookahead=40 / rc=2pass / mbtree=1 / bitrate=9231 / ratetol=1.0 / qcomp=0.60 / qpmin=10 / qpmax=51 / qpstep=4 / cplxblur=20.0 / qblur=0.5 / vbv_maxrate=50000 / vbv_bufsize=50000 / ip_ratio=1.40 / aq=1:1.00 / nal_hrd=none
  25. Language                                 : English
  26. Default                                  : Yes
  27. Forced                                   : Yes

  28. Audio
  29. ID                                       : 2
  30. Format                                   : DTS
  31. Format/Info                              : Digital Theater Systems
  32. Codec ID                                 : A_DTS
  33. Duration                                 : 1 h 56 min
  34. Bit rate mode                            : Constant
  35. Bit rate                                 : 1 509 kb/s
  36. Channel(s)                               : 6 channels
  37. Channel layout                           : C L R Ls Rs LFE
  38. Sampling rate                            : 48.0 kHz
  39. Frame rate                               : 93.750 FPS (512 SPF)
  40. Bit depth                                : 24 bits
  41. Compression mode                         : Lossy
  42. Stream size                              : 1.23 GiB (14%)
  43. Language                                 : English
  44. Default                                  : Yes
  45. Forced                                   : Yes
复制代码








                                       
                                       

                                       
                                       
                                       




回复

使用道具 举报

懒得打字嘛,点击右侧快捷回复 【右侧内容,后台自定义】
您需要登录后才可以回帖 登录 | 立即加入

本版积分规则

Archiver|小黑屋| 蓝光电影网 |网站地图

Copyright © 2021 Comsenz Inc. Powered by 蓝光电影网

蓝光电影网

本站内容由用户自主分享和转载自互联网,转载目的在于传递更多信息,并不代表本网赞同其观点和对其真实性负责。

如有侵权、违反国家法律政策行为,请联系我们,我们会第一时间及时清除和处理!

举报反馈邮箱:[email protected]

快速回复 返回顶部 返回列表