找回密码

蓝光电影网

查看: 38|回复: 0

[惊悚] 沉默的海湾 The.Bay.Of.Silence.2020.720p.BluRay.x264.DTS-FGT 4.10GB

[复制链接]
蓝光币
382
发表于 2021-8-4 18:25:58 | 显示全部楼层 |阅读模式
[img][/img]

◎译  名 沉默的海湾
◎片  名 The Bay of Silence
◎年  代 2020
◎产  地 英国
◎类  别 惊悚
◎语  言 英语,法语,意大利语
◎上映日期 2020-07-25(上海电影节) / 2020-09-28(英国)
◎豆瓣评分 4.7/10 from 520 users
◎豆瓣链接 https://movie.douban.com/subject/26782642/
◎片  长 94分钟
◎导  演 葆拉·范德厄斯特 Paula van der Oest
◎编  剧 卡罗琳·古多尔 Caroline Goodall
◎主  演 克拉斯·邦 Claes Bang
       欧嘉·柯瑞兰寇 Olga Kurylenko
       布莱恩·考克斯 Brian Cox
       阿萨德·包伯 Assaad Bouab
       艾丽丝·克里奇 Alice Krige
       卡罗琳·古多尔 Caroline Goodall
       邓肯·达夫 Duncan Duff
       吉斯·舒尔腾·范·艾查特 Gijs Scholten van Aschat
       阿格尼·斯科特 Agni Scott
◎标  签 悬疑 | 惊悚 | 英国 | 犯罪 | 英国电影 | 欧嘉·柯瑞兰寇 | 2020 | Uma·Thurman
◎简  介


  威廉姆身怀六甲的妻子从阳台跌落后,居然母子平安。但是,妻子又无故离去。威廉姆在追随妻子的途中,发现六个月大的儿子奥秘灭亡,妻子则神志不清——她有几多奥秘是威廉姆所不领会的?为了找回被埋葬的真相,威廉姆决议回到那片沉默的海湾。
  1. Video
  2. ID                                       : 1
  3. Format                                   : AVC
  4. Format/Info                              : Advanced Video Codec
  5. Format profile                           : [email protected]
  6. Format settings                          : CABAC / 4 Ref Frames
  7. Format settings, CABAC                   : Yes
  8. Format settings, Reference frames        : 4 frames
  9. Codec ID                                 : V_MPEG4/ISO/AVC
  10. Duration                                 : 1 h 33 min
  11. Bit rate                                 : 5 500 kb/s
  12. Width                                    : 1 280 pixels
  13. Height                                   : 536 pixels
  14. Display aspect ratio                     : 2.40:1
  15. Frame rate mode                          : Constant
  16. Frame rate                               : 23.976 (24000/1001/189150) FPS
  17. Color space                              : YUV
  18. Chroma subsampling                       : 4:2:0
  19. Bit depth                                : 8 bits
  20. Scan type                                : Progressive
  21. Bits/(Pixel*Frame)                       : 0.334
  22. Stream size                              : 3.59 GiB (88%)
  23. Writing library                          : x264 core 148 r2795M aaa9aa8
  24. Encoding settings                        : cabac=1 / ref=4 / deblock=1:-2:-2 / analyse=0x3:0x113 / me=umh / subme=9 / psy=1 / psy_rd=1.00:0.15 / mixed_ref=1 / me_range=16 / chroma_me=1 / trellis=2 / 8x8dct=1 / cqm=0 / deadzone=21,11 / fast_pskip=1 / chroma_qp_offset=-3 / threads=24 / lookahead_threads=3 / sliced_threads=0 / nr=0 / decimate=1 / interlaced=0 / bluray_compat=0 / constrained_intra=0 / bframes=3 / b_pyramid=2 / b_adapt=1 / b_bias=0 / direct=3 / weightb=1 / open_gop=0 / weightp=2 / keyint=250 / keyint_min=25 / scenecut=40 / intra_refresh=0 / rc_lookahead=50 / rc=2pass / mbtree=1 / bitrate=5500 / ratetol=1.0 / qcomp=0.60 / qpmin=0 / qpmax=69 / qpstep=4 / cplxblur=20.0 / qblur=0.5 / vbv_maxrate=31250 / vbv_bufsize=31250 / nal_hrd=none / filler=0 / ip_ratio=1.40 / aq=1:1.00
  25. Language                                 : English
  26. Default                                  : Yes
  27. Forced                                   : No
  28. Audio
  29. ID                                       : 2
  30. ID in the original source medium         : 4353 (0x1101)
  31. Format                                   : DTS
  32. Format/Info                              : Digital Theater Systems
  33. Codec ID                                 : A_DTS
  34. Duration                                 : 1 h 33 min
  35. Bit rate mode                            : Constant
  36. Bit rate                                 : 768 kb/s
  37. Channel(s)                               : 6 channels
  38. Channel layout                           : C L R Ls Rs LFE
  39. Sampling rate                            : 48.0 kHz
  40. Frame rate                               : 93.750 FPS (512 SPF)
  41. Bit depth                                : 16 bits
  42. Compression mode                         : Lossy
  43. Stream size                              : 514 MiB (12%)
  44. Title                                    : DTS 5.1
  45. Language                                 : English
  46. Default                                  : Yes
  47. Forced                                   : No
  48. Original source medium                   : Blu-ray
  49. Text
  50. ID                                       : 3
  51. Format                                   : UTF-8
  52. Codec ID                                 : S_TEXT/UTF8
  53. Codec ID/Info                            : UTF-8 Plain Text
  54. Duration                                 : 1 h 23 min
  55. Bit rate                                 : 36 b/s
  56. Count of elements                        : 904
  57. Stream size                              : 22.2 KiB (0%)
  58. Language                                 : English
  59. Default                                  : Yes
  60. Forced                                   : No
  61. Menu
  62. 00:00:00.000                             : Chapter 01
  63. 00:06:20.213                             : Chapter 02
  64. 00:14:51.181                             : Chapter 03
  65. 00:22:09.786                             : Chapter 04
  66. 00:30:01.007                             : Chapter 05
  67. 00:39:36.999                             : Chapter 06
  68. 00:47:24.341                             : Chapter 07
  69. 00:57:05.588                             : Chapter 08
  70. 01:04:41.752                             : Chapter 09
  71. 01:09:04.265                             : Chapter 10
  72. 01:16:43.098                             : Chapter 11
  73. 01:25:55.024                             : Chapter 12
复制代码




                                       
                                       

                                       
                                       
                                       




回复

使用道具 举报

懒得打字嘛,点击右侧快捷回复 【右侧内容,后台自定义】
您需要登录后才可以回帖 登录 | 立即加入

本版积分规则

Archiver|小黑屋| 蓝光电影网 |网站地图

Copyright © 2021 Comsenz Inc. Powered by 蓝光电影网

蓝光电影网

本站内容由用户自主分享和转载自互联网,转载目的在于传递更多信息,并不代表本网赞同其观点和对其真实性负责。

如有侵权、违反国家法律政策行为,请联系我们,我们会第一时间及时清除和处理!

举报反馈邮箱:[email protected]

快速回复 返回顶部 返回列表