找回密码

蓝光电影网

查看: 13|回复: 0

[动作] 深海狂鲨3 Deep.Blue.Sea.3.2020.720p.BluRay.x264.DTS-FGT 4.91GB

[复制链接]
蓝光币
382
发表于 2020-7-30 12:00:03 | 显示全部楼层 |阅读模式


◎译  名 深海狂鲨3
◎片  名 Deep Blue Sea 3
◎年  代 2020
◎产  地 美国
◎类  别 行动 / 科幻 / 可骇
◎语  言 英语
◎上映日期 2020-07-28(美国)
◎IMDb链接  https://www.imdb.com/title/tt11946300
◎豆瓣评分 0/10 from 0 users
◎豆瓣链接 https://movie.douban.com/subject/35101514/
◎片  长 99分钟
◎导  演 约翰·波罗 John Pogue
◎编  剧 德克·布莱克曼 Dirk Blackman
◎主  演 纳撒尼尔·布佐尼克 Nathaniel Buzolic
       Emerson Brooks
       布伦·福斯特 Bren Foster
       苍丽娜 Reina Aoi
       Alex Bhat
       Siya Mayola
       Ernest St Claire
       DeVille Vannik
       Brashaad Mayweather
       坦妮娅·雷蒙德 Tania Raymonde
       欧内斯特·圣·克莱尔 Ernest St.Clair

◎标  签 2020 | 美国 | 线上
◎简  介

  
  Dr. Emma Collins and her team are spending their third summer on the island of Little Happy studying the effect of climate change on the great white sharks who come to the nearby nursery every year to give birth. Along with the last two inhabitants of this former fishing village, their peaceful life is disrupted when a "scientific" team led by her ex-boyfriend and marine biologist Richard show up looking for three bull sharks who we soon learn aren't just any bull sharks.
  1. Video
  2. ID                                       : 1
  3. Format                                   : AVC
  4. Format/Info                              : Advanced Video Codec
  5. Format profile                           : [email protected]
  6. Format settings                          : CABAC / 4 Ref Frames
  7. Format settings, CABAC                   : Yes
  8. Format settings, Reference frames        : 4 frames
  9. Codec ID                                 : V_MPEG4/ISO/AVC
  10. Duration                                 : 1 h 40 min
  11. Bit rate                                 : 5 500 kb/s
  12. Width                                    : 1 280 pixels
  13. Height                                   : 534 pixels
  14. Display aspect ratio                     : 2.40:1
  15. Original display aspect ratio            : 2.40:1
  16. Frame rate mode                          : Constant
  17. Frame rate                               : 23.976 (24000/1001/189150) FPS
  18. Color space                              : YUV
  19. Chroma subsampling                       : 4:2:0
  20. Bit depth                                : 8 bits
  21. Scan type                                : Progressive
  22. Bits/(Pixel*Frame)                       : 0.336
  23. Stream size                              : 3.85 GiB (78%)
  24. Title                                    : Deep.Blue.Sea.3.2020.720p.BluRay.x264.DTS-FGT
  25. Writing library                          : x264 core 148 r2795M aaa9aa8
  26. Encoding settings                        : cabac=1 / ref=4 / deblock=1:-2:-2 / analyse=0x3:0x113 / me=umh / subme=9 / psy=1 / psy_rd=1.00:0.15 / mixed_ref=1 / me_range=16 / chroma_me=1 / trellis=2 / 8x8dct=1 / cqm=0 / deadzone=21,11 / fast_pskip=1 / chroma_qp_offset=-3 / threads=24 / lookahead_threads=3 / sliced_threads=0 / nr=0 / decimate=1 / interlaced=0 / bluray_compat=0 / constrained_intra=0 / bframes=3 / b_pyramid=2 / b_adapt=1 / b_bias=0 / direct=3 / weightb=1 / open_gop=0 / weightp=2 / keyint=250 / keyint_min=25 / scenecut=40 / intra_refresh=0 / rc_lookahead=50 / rc=2pass / mbtree=1 / bitrate=5500 / ratetol=1.0 / qcomp=0.60 / qpmin=0 / qpmax=69 / qpstep=4 / cplxblur=20.0 / qblur=0.5 / vbv_maxrate=31250 / vbv_bufsize=31250 / nal_hrd=none / filler=0 / ip_ratio=1.40 / aq=1:1.00
  27. Default                                  : Yes
  28. Forced                                   : No
  29. Audio
  30. ID                                       : 2
  31. Format                                   : DTS
  32. Format/Info                              : Digital Theater Systems
  33. Codec ID                                 : A_DTS
  34. Duration                                 : 1 h 40 min
  35. Bit rate mode                            : Constant
  36. Bit rate                                 : 1 509 kb/s
  37. Channel(s)                               : 6 channels
  38. Channel layout                           : C L R Ls Rs LFE
  39. Sampling rate                            : 48.0 kHz
  40. Frame rate                               : 93.750 FPS (512 SPF)
  41. Bit depth                                : 24 bits
  42. Compression mode                         : Lossy
  43. Stream size                              : 1.06 GiB (22%)
  44. Title                                    : Deep.Blue.Sea.3.2020.720p.BluRay.x264.DTS-FGT
  45. Language                                 : English
  46. Default                                  : Yes
  47. Forced                                   : No
  48. Text
  49. ID                                       : 3
  50. Format                                   : UTF-8
  51. Codec ID                                 : S_TEXT/UTF8
  52. Codec ID/Info                            : UTF-8 Plain Text
  53. Duration                                 : 1 h 30 min
  54. Bit rate                                 : 48 b/s
  55. Count of elements                        : 1054
  56. Stream size                              : 32.1 KiB (0%)
  57. Language                                 : English
  58. Default                                  : Yes
  59. Forced                                   : No
  60. Menu
  61. 00:00:00.000                             : en:Chapter 01
  62. 00:09:50.006                             : en:Chapter 02
  63. 00:19:15.154                             : en:Chapter 03
  64. 00:28:50.270                             : en:Chapter 04
  65. 00:38:06.034                             : en:Chapter 05
  66. 00:45:09.290                             : en:Chapter 06
  67. 00:54:28.891                             : en:Chapter 07
  68. 01:04:14.142                             : en:Chapter 08
  69. 01:14:12.406                             : en:Chapter 09
  70. 01:23:10.819                             : en:Chapter 10
  71. 01:32:48.229                             : en:Chapter 11
复制代码






                                       
                                       

                                       
                                       
                                       




回复

使用道具 举报

懒得打字嘛,点击右侧快捷回复 【右侧内容,后台自定义】
您需要登录后才可以回帖 登录 | 立即加入

本版积分规则

Archiver|小黑屋| 蓝光电影网 |网站地图

Copyright © 2021 Comsenz Inc. Powered by 蓝光电影网

蓝光电影网

本站内容由用户自主分享和转载自互联网,转载目的在于传递更多信息,并不代表本网赞同其观点和对其真实性负责。

如有侵权、违反国家法律政策行为,请联系我们,我们会第一时间及时清除和处理!

举报反馈邮箱:[email protected]

快速回复 返回顶部 返回列表