找回密码

蓝光电影网

查看: 22|回复: 0

[爱情] 我才不会对黑崎君说的话言听计从 The.Black.Devil.and.the.White.Prince.2016.JAPANESE.1080p.BluRay.x264.DTS-WiKi 7.50GB

[复制链接]
蓝光币
382
发表于 2020-9-28 10:24:42 | 显示全部楼层 |阅读模式


◎译  名 我才不会对黑崎君说的话百依百顺/Kurosaki-kun no iinari ni nante naranai
◎片  名 黒崎くんの言いなりになんてならない
◎年  代 2016
◎产  地 日本
◎类  别 恋爱
◎语  言 日语
◎上映日期 2016-02-27(日本)
◎IMDb评分  6.3/10 from 547 users
◎IMDb链接  https://www.imdb.com/title/tt5179576/
◎豆瓣评分 5.7/10 from 12581 users
◎豆瓣链接 https://movie.douban.com/subject/26576793/
◎片  长 93分钟
◎导  演 月川翔 Sh? Tsukikawa
◎编  剧 松田裕子 Y?ko Matsuda
◎主  演 中岛健人 Kento Nakajima
       小松菜奈 Nana Komatsu
       千叶雄大 Yudai Chiba
       高月彩良 Sara Takatsuki
       岸优太 Y?ta Kishi
       中村靖日 Yasuhi Nakamura
       黑崎莉奈 Reina Kurosaki
       铃木美羽 Miu Suzuki
◎标  签 小松菜奈 | 日本 | 恋爱 | 漫画改编 | 日本电影 | 青春 | 校园 | 日影
◎简  介


  赤羽由宇(小松菜奈 饰)是一个很是普通的女子高中生,由于父亲工作的缘由,由宇需要住进宿舍起头和其他同学和合住生活。常日里,由宇性情内敛,寡言少语,她希望此次的合宿生活可以帮助她改变一下外向的性情。
  
  但是,由宇住进宿舍没多久,便招惹到了黉舍里著名的“黑恶魔”黑崎晴人(中岛健人 饰),在鬼使神差之下,由宇居然酿成了听凭晴人使唤的傀儡,让由宇感应头疼的是,晴人似乎出格喜好做弄她。假如说由宇是黑恶魔的话,那末白河(千叶雄大 饰)就是由宇心目中温柔的白马王子,但随着时候的推移,由宇发现自己和晴人之间的关系发生了奥妙的变化。
  1. Video
  2. ID                                       : 1
  3. Format                                   : AVC
  4. Format/Info                              : Advanced Video Codec
  5. Format profile                           : [email protected]
  6. Format settings, CABAC                   : Yes
  7. Format settings, ReFrames                : 4 frames
  8. Codec ID                                 : V_MPEG4/ISO/AVC
  9. Duration                                 : 1h 32mn
  10. Bit rate                                 : 10.1 Mbps
  11. Width                                    : 1 920 pixels
  12. Height                                   : 1 036 pixels
  13. Display aspect ratio                     : 1.85:1
  14. Frame rate mode                          : Constant
  15. Frame rate                               : 23.976 (24000/1001) fps
  16. Color space                              : YUV
  17. Chroma subsampling                       : 4:2:0
  18. Bit depth                                : 8 bits
  19. Scan type                                : Progressive
  20. Bits/(Pixel*Frame)                       : 0.211
  21. Stream size                              : 6.51 GiB (87%)
  22. Writing library                          : x264 core 129 r2245+704+36 8e61944 tMod+MixAQ [[email protected]:2:0 X86_64]
  23. Encoding settings                        : cabac=1 / ref=4 / deblock=1:-3:-3 / analyse=0x3:0x133 / me=umh / subme=11 / psy=1 / fade_compensate=0.00 / psy_rd=1.05:0.10 / mixed_ref=1 / me_range=32 / chroma_me=1 / trellis=2 / 8x8dct=1 / cqm=0 / deadzone=21,11 / fast_pskip=0 / chroma_qp_offset=-3 / threads=18 / lookahead_threads=3 / sliced_threads=0 / nr=0 / decimate=0 / interlaced=0 / bluray_compat=0 / constrained_intra=0 / fgo=0 / bframes=10 / b_pyramid=2 / b_adapt=2 / b_bias=0 / direct=3 / weightb=1 / open_gop=0 / weightp=2 / keyint=250 / keyint_min=23 / scenecut=40 / intra_refresh=0 / rc_lookahead=80 / rc=2pass / mbtree=1 / bitrate=10080 / ratetol=1.0 / qcomp=0.70 / qpmin=0 / qpmax=69 / qpstep=4 / cplxblur=20.0 / qblur=0.5 / ip_ratio=1.40 / aq=1 / aq-strength=0.90 / aq-sensitivity=10.00 / aq-ifactor=1.00 / aq-pfactor=1.00 / aq-bfactor=1.00 / aq2=0
  24. Language                                 : Japanese
  25. Default                                  : Yes
  26. Forced                                   : No
  27. Audio
  28. ID                                       : 2
  29. Format                                   : DTS
  30. Format/Info                              : Digital Theater Systems
  31. Mode                                     : 16
  32. Format settings, Endianness              : Big
  33. Codec ID                                 : A_DTS
  34. Duration                                 : 1h 32mn
  35. Bit rate mode                            : Constant
  36. Bit rate                                 : 1 509 Kbps
  37. Channel(s)                               : 6 channels
  38. Channel positions                        : Front: L C R, Side: L R, LFE
  39. Sampling rate                            : 48.0 KHz
  40. Frame rate                               : 93.750 fps (512 spf)
  41. Bit depth                                : 24 bits
  42. Compression mode                         : Lossy
  43. Stream size                              : 999 MiB (13%)
  44. Language                                 : Japanese
  45. Default                                  : Yes
  46. Forced                                   : No
  47. Text
  48. ID                                       : 3
  49. Format                                   : ASS
  50. Codec ID                                 : S_TEXT/ASS
  51. Codec ID/Info                            : Advanced Sub Station Alpha
  52. Duration                                 : 1h 31mn
  53. Bit rate                                 : 71 bps
  54. Count of elements                        : 1022
  55. Compression mode                         : Lossless
  56. Stream size                              : 47.8 KiB (0%)
  57. Language                                 : Chinese
  58. Default                                  : Yes
  59. Forced                                   : No
  60. Menu
  61. 00:00:00.000                             : en:00:00:00.000
  62. 00:00:21.020                             : en:00:00:21.020
  63. 00:07:37.457                             : en:00:07:37.457
  64. 00:13:07.077                             : en:00:13:07.077
  65. 00:26:47.689                             : en:00:26:47.689
  66. 00:36:08.666                             : en:00:36:08.666
  67. 00:41:40.039                             : en:00:41:40.039
  68. 00:56:22.379                             : en:00:56:22.379
  69. 01:07:12.862                             : en:01:07:12.862
  70. 01:16:18.490                             : en:01:16:18.490
复制代码







                                       
                                       

                                       
                                       
                                       




回复

使用道具 举报

懒得打字嘛,点击右侧快捷回复 【右侧内容,后台自定义】
您需要登录后才可以回帖 登录 | 立即加入

本版积分规则

Archiver|小黑屋| 蓝光电影网 |网站地图

Copyright © 2021 Comsenz Inc. Powered by 蓝光电影网

蓝光电影网

本站内容由用户自主分享和转载自互联网,转载目的在于传递更多信息,并不代表本网赞同其观点和对其真实性负责。

如有侵权、违反国家法律政策行为,请联系我们,我们会第一时间及时清除和处理!

举报反馈邮箱:[email protected]

快速回复 返回顶部 返回列表