找回密码

蓝光电影网

查看: 29|回复: 0

[惊悚] 死里逃生 Out.Of.Death.2021.720p.BluRay.x264-RUSTED 3.82GB

[复制链接]
蓝光币
382
发表于 2021-8-4 15:46:45 | 显示全部楼层 |阅读模式
[img][/img]

◎译  名 死里逃生
◎片  名 Out of Death
◎年  代 2021
◎产  地 美国
◎类  别 惊悚 / 犯罪
◎语  言 英语
◎上映日期 2021-07-16(美国)
◎豆瓣评分 4.8/10 from 90 users
◎豆瓣链接 https://movie.douban.com/subject/35096840/
◎片  长 95分钟
◎导  演 迈克·本恩斯 Mike Burns
◎主  演 布鲁斯·威利斯 Bruce Willis
       杰米·金 Jaime King
       拉拉·肯特 Lala Kent
       凯莉·格蕾森 Kelly Greyson
       泰勒·乔恩·奥尔森 Tyler Jon Olson
       迈克尔·希罗 Michael Sirow
       梅根·伦纳德 Megan Leonard
       奥利弗·特雷韦纳 Oliver Trevena
◎标  签 犯罪 | 惊悚 | 悬疑 | 布鲁斯·威利斯 | 美国电影 | 美国 | 2021 | 人性
◎简  介


  布鲁斯·威利斯将出演惊悚新片[死里逃生](Out of Death,暂译)。本片由比尔·劳伦斯(《练习医生风云》)撰写剧本,Mike Burns执导,卡司还有杰米·金(《Summertime Sadness》MV)。饰物演的女人目击了四个陌生人犯罪,她为了躲避他们而在森林中奔驰,并获得了一位退休护林员(威利斯饰)的帮助。
  1. Video
  2. ID                                       : 1
  3. Format                                   : AVC
  4. Format/Info                              : Advanced Video Codec
  5. Format profile                           : [email protected]
  6. Format settings                          : CABAC / 8 Ref Frames
  7. Format settings, CABAC                   : Yes
  8. Format settings, Reference frames        : 8 frames
  9. Codec ID                                 : V_MPEG4/ISO/AVC
  10. Duration                                 : 1 h 35 min
  11. Bit rate                                 : 5 049 kb/s
  12. Width                                    : 1 280 pixels
  13. Height                                   : 536 pixels
  14. Display aspect ratio                     : 2.40:1
  15. Frame rate mode                          : Constant
  16. Frame rate                               : 23.976 (24000/1001/189150) FPS
  17. Color space                              : YUV
  18. Chroma subsampling                       : 4:2:0
  19. Bit depth                                : 8 bits
  20. Scan type                                : Progressive
  21. Bits/(Pixel*Frame)                       : 0.307
  22. Stream size                              : 3.38 GiB (88%)
  23. Writing library                          : x264 core 164 r3065 ae03d92
  24. Encoding settings                        : cabac=1 / ref=8 / deblock=1:-3:-3 / analyse=0x3:0x133 / me=umh / subme=9 / psy=1 / psy_rd=1.00:0.00 / mixed_ref=1 / me_range=16 / chroma_me=1 / trellis=2 / 8x8dct=1 / cqm=0 / deadzone=21,11 / fast_pskip=0 / chroma_qp_offset=-2 / threads=24 / lookahead_threads=2 / sliced_threads=0 / nr=0 / decimate=0 / interlaced=0 / bluray_compat=0 / constrained_intra=0 / bframes=3 / b_pyramid=2 / b_adapt=2 / b_bias=0 / direct=3 / weightb=1 / open_gop=0 / weightp=2 / keyint=250 / keyint_min=23 / scenecut=40 / intra_refresh=0 / rc=crf / mbtree=0 / crf=17.0 / qcomp=0.60 / qpmin=0 / qpmax=69 / qpstep=4 / ip_ratio=1.40 / pb_ratio=1.30 / aq=3:0.70
  25. Language                                 : English
  26. Default                                  : Yes
  27. Forced                                   : No
  28. Color range                              : Limited
  29. Matrix coefficients                      : BT.709

  30. Audio
  31. ID                                       : 2
  32. Format                                   : AC-3
  33. Format/Info                              : Audio Coding 3
  34. Commercial name                          : Dolby Digital
  35. Codec ID                                 : A_AC3
  36. Duration                                 : 1 h 35 min
  37. Bit rate mode                            : Constant
  38. Bit rate                                 : 640 kb/s
  39. Channel(s)                               : 6 channels
  40. Channel layout                           : L R C LFE Ls Rs
  41. Sampling rate                            : 48.0 kHz
  42. Frame rate                               : 31.250 FPS (1536 SPF)
  43. Compression mode                         : Lossy
  44. Stream size                              : 438 MiB (11%)
  45. Language                                 : English
  46. Service kind                             : Complete Main
  47. Default                                  : Yes
  48. Forced                                   : No

  49. Text #1
  50. ID                                       : 3
  51. Format                                   : UTF-8
  52. Codec ID                                 : S_TEXT/UTF8
  53. Codec ID/Info                            : UTF-8 Plain Text
  54. Duration                                 : 1 h 31 min
  55. Bit rate                                 : 41 b/s
  56. Count of elements                        : 1048
  57. Stream size                              : 28.0 KiB (0%)
  58. Title                                    : English (SRT)
  59. Language                                 : English
  60. Default                                  : No
  61. Forced                                   : No

  62. Text #2
  63. ID                                       : 4
  64. Format                                   : UTF-8
  65. Codec ID                                 : S_TEXT/UTF8
  66. Codec ID/Info                            : UTF-8 Plain Text
  67. Duration                                 : 1 h 35 min
  68. Bit rate                                 : 53 b/s
  69. Count of elements                        : 1367
  70. Stream size                              : 37.1 KiB (0%)
  71. Title                                    : English (SDH SRT)
  72. Language                                 : English
  73. Default                                  : No
  74. Forced                                   : No

  75. Text #3
  76. ID                                       : 5
  77. Format                                   : PGS
  78. Muxing mode                              : zlib
  79. Codec ID                                 : S_HDMV/PGS
  80. Codec ID/Info                            : Picture based subtitle format used on BDs/HD-DVDs
  81. Duration                                 : 1 h 35 min
  82. Bit rate                                 : 28.8 kb/s
  83. Count of elements                        : 2734
  84. Stream size                              : 19.7 MiB (1%)
  85. Title                                    : English (SDH)
  86. Language                                 : English
  87. Default                                  : No
  88. Forced                                   : No

  89. Menu
  90. 00:00:00.000                             : Chapter 01
  91. 00:07:45.799                             : Chapter 02
  92. 00:16:03.171                             : Chapter 03
  93. 00:24:28.842                             : Chapter 04
  94. 00:32:18.061                             : Chapter 05
  95. 00:40:36.142                             : Chapter 06
  96. 00:50:39.161                             : Chapter 07
  97. 00:59:27.522                             : Chapter 08
  98. 01:08:57.717                             : Chapter 09
  99. 01:17:40.990                             : Chapter 10
  100. 01:24:30.482                             : Chapter 11
  101. 01:32:58.490                             : Chapter 12
复制代码




                                       
                                       

                                       
                                       
                                       




回复

使用道具 举报

懒得打字嘛,点击右侧快捷回复 【右侧内容,后台自定义】
您需要登录后才可以回帖 登录 | 立即加入

本版积分规则

Archiver|小黑屋| 蓝光电影网 |网站地图

Copyright © 2021 Comsenz Inc. Powered by 蓝光电影网

蓝光电影网

本站内容由用户自主分享和转载自互联网,转载目的在于传递更多信息,并不代表本网赞同其观点和对其真实性负责。

如有侵权、违反国家法律政策行为,请联系我们,我们会第一时间及时清除和处理!

举报反馈邮箱:[email protected]

快速回复 返回顶部 返回列表