找回密码

蓝光电影网

查看: 12|回复: 0

[恐怖] 恶作剧 Hoax.2019.1080p.BluRay.x264.DTS-HD.MA.5.1-FGT 8.67GB

[复制链接]
蓝光币
382
发表于 2020-12-5 09:20:16 | 显示全部楼层 |阅读模式


◎译  名 恶作剧
◎片  名 Hoax
◎年  代 2019
◎产  地 美国
◎类  别 可骇
◎语  言 英语
◎上映日期 2019-08-20(美国)
◎IMDb评分  3.9/10 from 576 users
◎IMDb链接  https://www.imdb.com/title/tt5580688/
◎豆瓣评分 /10 from 0 users
◎豆瓣链接 https://movie.douban.com/subject/26965002/
◎片  长 90分钟
◎导  演 马特·艾伦 Matt Allen
◎编  剧 马特·艾伦 Matt Allen
◎主  演 阿德里安娜·巴比欧 Adrienne Barbeau
       布莱恩·汤普森 Brian Thompson
       本·布劳德 Ben Browder
       小丝哈娜·布什 Shoshana Bush
       哈契·达诺 Hutch Dano
       安东尼雷派克 Anthony Ray Parker
       马特·雷迪 Matt Riedy
       克里斯托弗·索伦·凯利 Christopher Soren Kelly
       瑞恩·李 Ryan Lee
       布莱恩·兰迪斯·福尔金斯 Brian Landis Folkins
◎标  签 美国电影 | 可骇 | [歐美]
◎简  介


  An investigation into a camping trip gone wrong turns into a fight for survival when a team, including a brilliant primate specialist and led by a ruthless television producer, must come to grips with the possible existence of Bigfoot.
  1. Video
  2. ID                                       : 1
  3. Format                                   : AVC
  4. Format/Info                              : Advanced Video Codec
  5. Format profile                           : [email protected]
  6. Format settings                          : CABAC / 4 Ref Frames
  7. Format settings, CABAC                   : Yes
  8. Format settings, Reference frames        : 4 frames
  9. Codec ID                                 : V_MPEG4/ISO/AVC
  10. Duration                                 : 1 h 35 min
  11. Bit rate                                 : 11.5 Mb/s
  12. Width                                    : 1 920 pixels
  13. Height                                   : 804 pixels
  14. Display aspect ratio                     : 2.40:1
  15. Frame rate mode                          : Constant
  16. Frame rate                               : 23.976 (24000/1001/189150) FPS
  17. Color space                              : YUV
  18. Chroma subsampling                       : 4:2:0
  19. Bit depth                                : 8 bits
  20. Scan type                                : Progressive
  21. Bits/(Pixel*Frame)                       : 0.311
  22. Stream size                              : 7.70 GiB (89%)
  23. Title                                    : Hoax.2019.1080p.BluRay.x264.DTS-HD.MA.5.1-FGT
  24. Writing library                          : x264 core 148 r2748 97eaef2
  25. Encoding settings                        : cabac=1 / ref=4 / deblock=1:-2:-2 / analyse=0x3:0x113 / me=umh / subme=9 / psy=1 / psy_rd=1.00:0.15 / mixed_ref=1 / me_range=16 / chroma_me=1 / trellis=2 / 8x8dct=1 / cqm=0 / deadzone=21,11 / fast_pskip=1 / chroma_qp_offset=-3 / threads=72 / lookahead_threads=3 / sliced_threads=0 / nr=0 / decimate=1 / interlaced=0 / bluray_compat=0 / constrained_intra=0 / bframes=3 / b_pyramid=2 / b_adapt=1 / b_bias=0 / direct=3 / weightb=1 / open_gop=0 / weightp=2 / keyint=250 / keyint_min=25 / scenecut=40 / intra_refresh=0 / rc_lookahead=50 / rc=2pass / mbtree=1 / bitrate=11500 / ratetol=1.0 / qcomp=0.60 / qpmin=0 / qpmax=69 / qpstep=4 / cplxblur=20.0 / qblur=0.5 / vbv_maxrate=31250 / vbv_bufsize=31250 / nal_hrd=none / filler=0 / ip_ratio=1.40 / aq=1:1.00
  26. Language                                 : English
  27. Default                                  : Yes
  28. Forced                                   : No
  29. Audio
  30. ID                                       : 2
  31. ID in the original source medium         : 4353 (0x1101)
  32. Format                                   : DTS XLL
  33. Format/Info                              : Digital Theater Systems
  34. Commercial name                          : DTS-HD Master Audio
  35. Codec ID                                 : A_DTS
  36. Duration                                 : 1 h 35 min
  37. Bit rate mode                            : Variable
  38. Bit rate                                 : 1 445 kb/s
  39. Channel(s)                               : 6 channels
  40. Channel layout                           : C L R Ls Rs LFE
  41. Sampling rate                            : 48.0 kHz
  42. Frame rate                               : 93.750 FPS (512 SPF)
  43. Bit depth                                : 16 bits
  44. Compression mode                         : Lossless
  45. Stream size                              : 991 MiB (11%)
  46. Title                                    : Hoax.2019.1080p.BluRay.x264.DTS-HD.MA.5.1-FGT
  47. Language                                 : English
  48. Default                                  : Yes
  49. Forced                                   : No
  50. Original source medium                   : Blu-ray
  51. Text
  52. ID                                       : 3
  53. Format                                   : UTF-8
  54. Codec ID                                 : S_TEXT/UTF8
  55. Codec ID/Info                            : UTF-8 Plain Text
  56. Duration                                 : 1 h 31 min
  57. Bit rate                                 : 42 b/s
  58. Count of elements                        : 1185
  59. Stream size                              : 28.3 KiB (0%)
  60. Language                                 : English
  61. Default                                  : Yes
  62. Forced                                   : No
  63. Menu
  64. 00:00:00.000                             : en:Chapter 01
  65. 00:07:20.648                             : en:Chapter 02
  66. 00:13:15.920                             : en:Chapter 03
  67. 00:23:11.098                             : en:Chapter 04
  68. 00:28:52.647                             : en:Chapter 05
  69. 00:38:37.023                             : en:Chapter 06
  70. 00:47:10.494                             : en:Chapter 07
  71. 00:57:42.876                             : en:Chapter 08
  72. 01:04:24.569                             : en:Chapter 09
  73. 01:12:18.042                             : en:Chapter 10
  74. 01:17:41.657                             : en:Chapter 11
  75. 01:32:52.650                             : en:Chapter 12
复制代码





                                       
                                       

                                       
                                       
                                       




回复

使用道具 举报

懒得打字嘛,点击右侧快捷回复 【右侧内容,后台自定义】
您需要登录后才可以回帖 登录 | 立即加入

本版积分规则

Archiver|小黑屋| 蓝光电影网 |网站地图

Copyright © 2021 Comsenz Inc. Powered by 蓝光电影网

蓝光电影网

本站内容由用户自主分享和转载自互联网,转载目的在于传递更多信息,并不代表本网赞同其观点和对其真实性负责。

如有侵权、违反国家法律政策行为,请联系我们,我们会第一时间及时清除和处理!

举报反馈邮箱:[email protected]

快速回复 返回顶部 返回列表