找回密码

蓝光电影网

查看: 7|回复: 0

[动作] 世界大战/地球争霸战 The.War.of.the.Worlds.1953.720p.BluRay.X264-AMIABLE 4.28GB

[复制链接]
蓝光币
382
发表于 2020-7-20 17:29:09 | 显示全部楼层 |阅读模式


◎译  名 天下大战 / 地球争霸战 / 外星人大战地球
◎片  名 The War of the Worlds
◎年  代 1953
◎产  地 美国
◎类  别 行动 / 科幻 / 惊悚 / 可骇
◎语  言 英语 / 西班牙语
◎上映日期 1953-08-26
◎IMDb评分  7.1/10 from 31740 users
◎IMDb链接  https://www.imdb.com/title/tt0046534
◎豆瓣评分 6.4/10 from 516 users
◎豆瓣链接 https://movie.douban.com/subject/1293523/
◎片  长 85 分钟
◎导  演 Byron Haskin
◎编  剧 Barré Lyndon / H.G. Wells
◎主  演 Gene Barry
       Ann Robinson
       Les Tremayne

◎标  签 科幻 | 美国 | 1953 | 1950s | 美国电影 | 外星人 | 惊悚 | 美國
◎简  介

  
  火星人因火星天气变化没法保存而计划大举侵上天球,当第一艘飞船落到地球上时,居民们以为是陨石。博士克莱法斯特经过探测仪器得知有放射性,需等冷却才能检察,但有人猎奇前往旁观,不意被杀死。人类的一切兵器都不能对于火星人的死光炮,全天下的人都在逃命,全部地球乱作一团。正在这时,火星人却一个接一个死去,本来……
◎获奖情况  
  第26届奥斯卡金像奖(1954)
  最好剪辑(提名) Everett Douglas
  最好殊效
  最好录音(提名) 洛伦·L·里德
  1. Video
  2. ID                                       : 1
  3. Format                                   : AVC
  4. Format/Info                              : Advanced Video Codec
  5. Format profile                           : [email protected]
  6. Format settings                          : CABAC / 8 Ref Frames
  7. Format settings, CABAC                   : Yes
  8. Format settings, Reference frames        : 8 frames
  9. Codec ID                                 : V_MPEG4/ISO/AVC
  10. Duration                                 : 1 h 25 min
  11. Bit rate                                 : 5 887 kb/s
  12. Width                                    : 986 pixels
  13. Height                                   : 720 pixels
  14. Display aspect ratio                     : 4:3
  15. Frame rate mode                          : Constant
  16. Frame rate                               : 23.976 (24000/1001/189150) FPS
  17. Color space                              : YUV
  18. Chroma subsampling                       : 4:2:0
  19. Bit depth                                : 8 bits
  20. Scan type                                : Progressive
  21. Bits/(Pixel*Frame)                       : 0.346
  22. Stream size                              : 3.52 GiB (82%)
  23. Writing library                          : x264 core 161 r3018 db0d417
  24. Encoding settings                        : cabac=1 / ref=8 / deblock=1:-3:-3 / analyse=0x3:0x133 / me=umh / subme=9 / psy=1 / psy_rd=1.10:0.00 / mixed_ref=1 / me_range=24 / chroma_me=1 / trellis=2 / 8x8dct=1 / cqm=0 / deadzone=21,11 / fast_pskip=0 / chroma_qp_offset=-2 / threads=22 / lookahead_threads=1 / sliced_threads=0 / nr=0 / decimate=0 / interlaced=0 / bluray_compat=0 / constrained_intra=0 / bframes=3 / b_pyramid=2 / b_adapt=2 / b_bias=0 / direct=3 / weightb=1 / open_gop=0 / weightp=2 / keyint=250 / keyint_min=23 / scenecut=40 / intra_refresh=0 / rc=crf / mbtree=0 / crf=17.0 / qcomp=0.60 / qpmin=0 / qpmax=69 / qpstep=4 / ip_ratio=1.40 / pb_ratio=1.30 / aq=3:0.70
  25. Default                                  : Yes
  26. Forced                                   : No
  27. Color range                              : Limited
  28. Matrix coefficients                      : BT.709

  29. Audio #1
  30. ID                                       : 2
  31. Format                                   : AC-3
  32. Format/Info                              : Audio Coding 3
  33. Commercial name                          : Dolby Digital
  34. Codec ID                                 : A_AC3
  35. Duration                                 : 1 h 25 min
  36. Bit rate mode                            : Constant
  37. Bit rate                                 : 640 kb/s
  38. Channel(s)                               : 6 channels
  39. Channel layout                           : L R C LFE Ls Rs
  40. Sampling rate                            : 48.0 kHz
  41. Frame rate                               : 31.250 FPS (1536 SPF)
  42. Bit depth                                : 16 bits
  43. Compression mode                         : Lossy
  44. Stream size                              : 392 MiB (9%)
  45. Title                                    : AC-3 5.1
  46. Language                                 : English
  47. Service kind                             : Complete Main
  48. Default                                  : Yes
  49. Forced                                   : No

  50. Audio #2
  51. ID                                       : 6
  52. Format                                   : FLAC
  53. Format/Info                              : Free Lossless Audio Codec
  54. Codec ID                                 : A_FLAC
  55. Duration                                 : 1 h 25 min
  56. Bit rate mode                            : Variable
  57. Bit rate                                 : 538 kb/s
  58. Channel(s)                               : 1 channel
  59. Channel layout                           : C
  60. Sampling rate                            : 48.0 kHz
  61. Frame rate                               : 11.719 FPS (4096 SPF)
  62. Bit depth                                : 24 bits
  63. Compression mode                         : Lossless
  64. Stream size                              : 329 MiB (8%)
  65. Title                                    : Original Audio
  66. Writing library                          : libFLAC 1.2.1 (UTC 2007-09-17)
  67. Language                                 : English
  68. Default                                  : No
  69. Forced                                   : No

  70. Audio #3
  71. ID                                       : 7
  72. Format                                   : AAC LC
  73. Format/Info                              : Advanced Audio Codec Low Complexity
  74. Codec ID                                 : A_AAC-2
  75. Duration                                 : 1 h 25 min
  76. Bit rate                                 : 76.9 kb/s
  77. Channel(s)                               : 1 channel
  78. Channel layout                           : C
  79. Sampling rate                            : 48.0 kHz
  80. Frame rate                               : 46.875 FPS (1024 SPF)
  81. Compression mode                         : Lossy
  82. Delay relative to video                  : 9 ms
  83. Stream size                              : 47.1 MiB (1%)
  84. Title                                    : Commentary with filmmaker Joe Dante, film historian Bob Burns, and writer Bill Warren
  85. Language                                 : English
  86. Default                                  : No
  87. Forced                                   : No

  88. Text #1
  89. ID                                       : 3
  90. Format                                   : UTF-8
  91. Codec ID                                 : S_TEXT/UTF8
  92. Codec ID/Info                            : UTF-8 Plain Text
  93. Duration                                 : 1 h 25 min
  94. Bit rate                                 : 60 b/s
  95. Count of elements                        : 931
  96. Stream size                              : 37.6 KiB (0%)
  97. Title                                    : Stripped SRT
  98. Language                                 : English
  99. Default                                  : No
  100. Forced                                   : No

  101. Text #2
  102. ID                                       : 4
  103. Format                                   : UTF-8
  104. Codec ID                                 : S_TEXT/UTF8
  105. Codec ID/Info                            : UTF-8 Plain Text
  106. Duration                                 : 1 h 25 min
  107. Bit rate                                 : 62 b/s
  108. Count of elements                        : 976
  109. Stream size                              : 38.9 KiB (0%)
  110. Title                                    : SDH SRT
  111. Language                                 : English
  112. Default                                  : No
  113. Forced                                   : No

  114. Text #3
  115. ID                                       : 5
  116. Format                                   : PGS
  117. Muxing mode                              : zlib
  118. Codec ID                                 : S_HDMV/PGS
  119. Codec ID/Info                            : Picture based subtitle format used on BDs/HD-DVDs
  120. Duration                                 : 1 h 25 min
  121. Bit rate                                 : 52.3 kb/s
  122. Count of elements                        : 1952
  123. Stream size                              : 31.8 MiB (1%)
  124. Title                                    : English SDH
  125. Language                                 : English
  126. Default                                  : No
  127. Forced                                   : No

  128. Menu
  129. 00:00:00.000                             : en:Chapter 01
  130. 00:07:33.286                             : en:Chapter 02
  131. 00:13:10.790                             : en:Chapter 03
  132. 00:22:22.007                             : en:Chapter 04
  133. 00:30:49.723                             : en:Chapter 05
  134. 00:40:25.423                             : en:Chapter 06
  135. 00:54:04.366                             : en:Chapter 07
  136. 00:56:25.382                             : en:Chapter 08
  137. 01:08:19.387                             : en:Chapter 09
  138. 01:15:09.714                             : en:Chapter 10
复制代码




                                       
                                       

                                       
                                       
                                       




回复

使用道具 举报

懒得打字嘛,点击右侧快捷回复 【右侧内容,后台自定义】
您需要登录后才可以回帖 登录 | 立即加入

本版积分规则

Archiver|小黑屋| 蓝光电影网 |网站地图

Copyright © 2021 Comsenz Inc. Powered by 蓝光电影网

蓝光电影网

本站内容由用户自主分享和转载自互联网,转载目的在于传递更多信息,并不代表本网赞同其观点和对其真实性负责。

如有侵权、违反国家法律政策行为,请联系我们,我们会第一时间及时清除和处理!

举报反馈邮箱:[email protected]

快速回复 返回顶部 返回列表