找回密码

蓝光电影网

查看: 27|回复: 0

[爱情] 消失爱人 The.Secret.2016.1080p.BluRay.x264-WiKi 8.30GB

[复制链接]
蓝光币
382
发表于 2020-9-28 09:43:02 | 显示全部楼层 |阅读模式


◎译  名 The Secret/消失的爱人(港)/看不见的奥秘
◎片  名 消失爱人
◎年  代 2016
◎产  地 中国大陆
◎类  别 恋爱 / 悬疑
◎语  言 汉语普通话
◎上映日期 2016-01-15(中国大陆)
◎IMDb评分  6.1/10 from 87 users
◎IMDb链接  https://www.imdb.com/title/tt5436486/
◎豆瓣评分 4.9/10 from 12185 users
◎豆瓣链接 https://movie.douban.com/subject/26309968/
◎片  长 109分钟
◎导  演 黄真真 Chun-Chun Wong
◎编  剧 黄真真 Chun-Chun Wong / 侯颖桁 Silver Hau Wing-Hang / 郑善瑜 Skipper Cheng / 杜光庭 Daryl Doo
◎主  演 拂晓 Leon Lai
       王珞丹 Luodan Wang
       林豪杰 JJ Lin
       张榕容 Sandrine Pinna
       石修 Sau Sek
       晏柔中 Crystal Yen
       杨孟霖 Nick Yang
       谭宫柔真 ?àm th? huy?n trang
       孙阳 Yang Sun
◎标  签 恋爱 | 悬疑 | 温情 | 中国 | 2016 | 亲情 | 动人 | 大陆
◎简  介


  凯峰(拂晓 饰)的妻子秋捷(王珞丹 饰)在一场意外当中不幸丧生,令凯峰沉醉在悲痛和失望当中。凯峰找到了灵媒师,希望妻子可以死去活来,但是让凯峰没有想到的是,他的愿望居然成真,秋捷以鬼魂的形式回到了他的身旁。
  
  灵媒师告诉凯峰,秋捷并不晓得自己已经死去,凯峰和儿子沐沐必须守旧这个奥秘,一旦秋捷看破真相,就会消失。就这样,这个家庭以这样一种诡异的方式破镜重圆。但是某一日,凯峰的表弟吉米(林豪杰 饰)居然看见了秋捷的灵魂,与此同时,令秋捷丧生的那场雪山变乱亦被媒体大告发道,当一切都接近解体之时,一个更大的奥秘渐渐浮出了水面。
  1. Video
  2. ID                                       : 1
  3. Format                                   : AVC
  4. Format/Info                              : Advanced Video Codec
  5. Format profile                           : [email protected]
  6. Format settings, CABAC                   : Yes
  7. Format settings, ReFrames                : 5 frames
  8. Codec ID                                 : V_MPEG4/ISO/AVC
  9. Duration                                 : 1h 46mn
  10. Bit rate                                 : 10.5 Mbps
  11. Width                                    : 1 920 pixels
  12. Height                                   : 804 pixels
  13. Display aspect ratio                     : 2.40:1
  14. Frame rate mode                          : Constant
  15. Frame rate                               : 24.000 fps
  16. Color space                              : YUV
  17. Chroma subsampling                       : 4:2:0
  18. Bit depth                                : 8 bits
  19. Scan type                                : Progressive
  20. Bits/(Pixel*Frame)                       : 0.283
  21. Stream size                              : 7.66 GiB (92%)
  22. Writing library                          : x264 core 142 r2431+42 c69a006 tMod [[email protected] X86_64]
  23. Encoding settings                        : cabac=1 / ref=5 / deblock=1:-3:-3 / analyse=0x3:0x133 / me=umh / subme=11 / psy=1 / fade_compensate=0.00 / psy_rd=1.05:0.05 / mixed_ref=1 / me_range=64 / chroma_me=1 / trellis=2 / 8x8dct=1 / cqm=0 / deadzone=21,11 / fast_pskip=0 / chroma_qp_offset=-1 / threads=12 / lookahead_threads=2 / sliced_threads=0 / nr=0 / decimate=0 / interlaced=0 / bluray_compat=0 / constrained_intra=0 / fgo=0 / bframes=8 / b_pyramid=2 / b_adapt=2 / b_bias=0 / direct=3 / weightb=1 / open_gop=0 / weightp=2 / keyint=250 / keyint_min=24 / scenecut=40 / intra_refresh=0 / rc_lookahead=120 / rc=2pass / mbtree=0 / bitrate=10500 / ratetol=1.0 / qcomp=0.70 / qpmin=0:0:0 / qpmax=69:69:69 / qpstep=4 / cplxblur=20.0 / qblur=0.5 / vbv_maxrate=50000 / vbv_bufsize=50000 / nal_hrd=none / filler=0 / ip_ratio=1.40 / pb_ratio=1.30 / aq=1:0.85 / aq-sensitivity=10.00 / aq-factor=1.00:1.00:1.00 / aq2=0 / aq3=0
  24. Language                                 : English
  25. Default                                  : Yes
  26. Forced                                   : No
  27. Color range                              : Limited
  28. Matrix coefficients                      : BT.709
  29. Audio
  30. ID                                       : 2
  31. Format                                   : AC-3
  32. Format/Info                              : Audio Coding 3
  33. Mode extension                           : CM (complete main)
  34. Format settings, Endianness              : Big
  35. Codec ID                                 : A_AC3
  36. Duration                                 : 1h 46mn
  37. Bit rate mode                            : Constant
  38. Bit rate                                 : 640 Kbps
  39. Channel(s)                               : 6 channels
  40. Channel positions                        : Front: L C R, Side: L R, LFE
  41. Sampling rate                            : 48.0 KHz
  42. Frame rate                               : 31.250 fps (1536 spf)
  43. Compression mode                         : Lossy
  44. Stream size                              : 489 MiB (6%)
  45. Default                                  : Yes
  46. Forced                                   : No
  47. Text #1
  48. ID                                       : 3
  49. Format                                   : UTF-8
  50. Codec ID                                 : S_TEXT/UTF8
  51. Codec ID/Info                            : UTF-8 Plain Text
  52. Default                                  : Yes
  53. Forced                                   : No
  54. Text #2
  55. ID                                       : 4
  56. Format                                   : UTF-8
  57. Codec ID                                 : S_TEXT/UTF8
  58. Codec ID/Info                            : UTF-8 Plain Text
  59. Default                                  : No
  60. Forced                                   : No
  61. Menu
  62. 00:00:00.000                             : en:00:00:00.000
  63. 00:07:53.875                             : en:00:07:53.875
  64. 00:15:00.250                             : en:00:15:00.250
  65. 00:18:19.542                             : en:00:18:19.542
  66. 00:25:18.125                             : en:00:25:18.125
  67. 00:29:51.667                             : en:00:29:51.667
  68. 00:34:52.250                             : en:00:34:52.250
  69. 00:39:35.875                             : en:00:39:35.875
  70. 00:43:05.042                             : en:00:43:05.042
  71. 00:47:11.250                             : en:00:47:11.250
  72. 00:53:31.375                             : en:00:53:31.375
  73. 00:56:40.792                             : en:00:56:40.792
  74. 01:00:52.208                             : en:01:00:52.208
  75. 01:03:40.125                             : en:01:03:40.125
  76. 01:09:46.417                             : en:01:09:46.417
  77. 01:14:40.500                             : en:01:14:40.500
  78. 01:22:07.625                             : en:01:22:07.625
  79. 01:29:33.292                             : en:01:29:33.292
  80. 01:33:43.000                             : en:01:33:43.000
  81. 01:41:03.250                             : en:01:41:03.250
复制代码









                                       
                                       

                                       
                                       
                                       




回复

使用道具 举报

懒得打字嘛,点击右侧快捷回复 【右侧内容,后台自定义】
您需要登录后才可以回帖 登录 | 立即加入

本版积分规则

Archiver|小黑屋| 蓝光电影网 |网站地图

Copyright © 2021 Comsenz Inc. Powered by 蓝光电影网

蓝光电影网

本站内容由用户自主分享和转载自互联网,转载目的在于传递更多信息,并不代表本网赞同其观点和对其真实性负责。

如有侵权、违反国家法律政策行为,请联系我们,我们会第一时间及时清除和处理!

举报反馈邮箱:[email protected]

快速回复 返回顶部 返回列表