找回密码

蓝光电影网

查看: 35|回复: 0

[惊悚] 午夜的柳枝 Midnight.in.the.Switchgrass.2021.720p.BluRay.x264-PiGNUS 4.36GB

[复制链接]
蓝光币
382
发表于 2021-7-28 08:47:34 | 显示全部楼层 |阅读模式


◎译  名 半夜的柳枝
◎片  名 Midnight in the Switchgrass
◎年  代 2021
◎产  地 美国
◎类  别 惊悚 / 犯罪
◎语  言 英语
◎上映日期 2021-07-23(美国)
◎豆瓣评分 4.8/10 from 729 users
◎豆瓣链接 https://movie.douban.com/subject/35002786/
◎片  长 99分钟
◎导  演 兰道尔·艾米特 Randall Emmett
◎主  演 梅根·福克斯 Megan Fox
       机关枪凯利 Machine Gun Kelly
       埃米尔·赫斯基 Emile Hirsch
       布鲁斯·威利斯 Bruce Willis
       卢卡斯·哈斯 Lukas Haas
       凯特琳·卡迈克尔 Caitlin Carmichael
       奥利弗·伊莉丝·阿伯克隆比 Olive Elise Abercrombie
       丽迪雅·赫尔 Lydia Hull
       杰基·克鲁兹 Jackie Cruz
       泰勒·乔恩·奥尔森 Tyler Jon Olson
       斯温·特梅尔 Swen Temmel
       希斯蒂妮·史泰龙 Sistine Rose Stallone
       迈克尔·比奇 Michael Beach
       多诺万·W·卡特 Donovan W. Carter
       奥马尔·克鲁兹·索托 Omar Cruz Soto
       大卫·希尔 David Hill
       让·皮埃尔·普拉茨 Jean Pierre Prats
       小戴维·M·桑多瓦尔 David M Sandoval Jr.
◎标  签 犯罪 | 美国 | 2021 | 梅根·福克斯 | 布鲁斯·威利斯 | 惊悚 | 美国电影 | 悬疑
◎简  介


  一位联邦观察局奸细和佛罗里达州官员联手观察一系列未侦破的谋杀案。
  1. Video
  2. ID                                       : 1
  3. Format                                   : AVC
  4. Format/Info                              : Advanced Video Codec
  5. Format profile                           : [email protected]
  6. Format settings                          : CABAC / 8 Ref Frames
  7. Format settings, CABAC                   : Yes
  8. Format settings, Reference frames        : 8 frames
  9. Codec ID                                 : V_MPEG4/ISO/AVC
  10. Duration                                 : 1 h 38 min
  11. Bit rate                                 : 5 543 kb/s
  12. Width                                    : 1 280 pixels
  13. Height                                   : 536 pixels
  14. Display aspect ratio                     : 2.40:1
  15. Frame rate mode                          : Constant
  16. Frame rate                               : 23.976 (24000/1001/189150) FPS
  17. Color space                              : YUV
  18. Chroma subsampling                       : 4:2:0
  19. Bit depth                                : 8 bits
  20. Scan type                                : Progressive
  21. Bits/(Pixel*Frame)                       : 0.337
  22. Stream size                              : 3.82 GiB (88%)
  23. Writing library                          : x264 core 164 r3065 ae03d92
  24. Encoding settings                        : cabac=1 / ref=8 / deblock=1:-3:-3 / analyse=0x3:0x133 / me=umh / subme=9 / psy=1 / psy_rd=1.00:0.00 / mixed_ref=1 / me_range=16 / chroma_me=1 / trellis=2 / 8x8dct=1 / cqm=0 / deadzone=21,11 / fast_pskip=1 / chroma_qp_offset=-2 / threads=17 / lookahead_threads=1 / sliced_threads=0 / nr=0 / decimate=1 / interlaced=0 / bluray_compat=0 / constrained_intra=0 / bframes=3 / b_pyramid=2 / b_adapt=2 / b_bias=0 / direct=3 / weightb=1 / open_gop=0 / weightp=2 / keyint=250 / keyint_min=23 / scenecut=40 / intra_refresh=0 / rc_lookahead=60 / rc=crf / mbtree=1 / crf=14.5 / qcomp=0.60 / qpmin=0 / qpmax=69 / qpstep=4 / ip_ratio=1.40 / aq=1:1.00
  25. Default                                  : Yes
  26. Forced                                   : No

  27. Audio #1
  28. ID                                       : 2
  29. Format                                   : AC-3
  30. Format/Info                              : Audio Coding 3
  31. Commercial name                          : Dolby Digital
  32. Codec ID                                 : A_AC3
  33. Duration                                 : 1 h 38 min
  34. Bit rate mode                            : Constant
  35. Bit rate                                 : 640 kb/s
  36. Channel(s)                               : 6 channels
  37. Channel layout                           : L R C LFE Ls Rs
  38. Sampling rate                            : 48.0 kHz
  39. Frame rate                               : 31.250 FPS (1536 SPF)
  40. Compression mode                         : Lossy
  41. Stream size                              : 452 MiB (10%)
  42. Language                                 : English
  43. Service kind                             : Complete Main
  44. Default                                  : Yes
  45. Forced                                   : No

  46. Audio #2
  47. ID                                       : 3
  48. Format                                   : AAC LC
  49. Format/Info                              : Advanced Audio Codec Low Complexity
  50. Codec ID                                 : A_AAC-2
  51. Duration                                 : 1 h 38 min
  52. Bit rate                                 : 108 kb/s
  53. Channel(s)                               : 2 channels
  54. Channel layout                           : L R
  55. Sampling rate                            : 48.0 kHz
  56. Frame rate                               : 46.875 FPS (1024 SPF)
  57. Compression mode                         : Lossy
  58. Delay relative to video                  : 9 ms
  59. Stream size                              : 76.2 MiB (2%)
  60. Title                                    : Commentary
  61. Language                                 : English
  62. Default                                  : No
  63. Forced                                   : No

  64. Text #1
  65. ID                                       : 4
  66. Format                                   : PGS
  67. Muxing mode                              : zlib
  68. Codec ID                                 : S_HDMV/PGS
  69. Codec ID/Info                            : Picture based subtitle format used on BDs/HD-DVDs
  70. Duration                                 : 1 h 30 min
  71. Bit rate                                 : 35.2 kb/s
  72. Count of elements                        : 2402
  73. Stream size                              : 22.9 MiB (1%)
  74. Title                                    : English SDH
  75. Language                                 : English
  76. Default                                  : No
  77. Forced                                   : No

  78. Text #2
  79. ID                                       : 5
  80. Format                                   : PGS
  81. Muxing mode                              : zlib
  82. Codec ID                                 : S_HDMV/PGS
  83. Codec ID/Info                            : Picture based subtitle format used on BDs/HD-DVDs
  84. Duration                                 : 1 h 36 min
  85. Bit rate                                 : 27.2 kb/s
  86. Count of elements                        : 1910
  87. Stream size                              : 18.8 MiB (0%)
  88. Title                                    : Spanish
  89. Language                                 : Spanish
  90. Default                                  : No
  91. Forced                                   : No

  92. Menu
  93. 00:00:00.000                             : Chapter 01
  94. 00:06:15.875                             : Chapter 02
  95. 00:08:55.744                             : Chapter 03
  96. 00:16:05.882                             : Chapter 04
  97. 00:22:47.616                             : Chapter 05
  98. 00:31:44.486                             : Chapter 06
  99. 00:36:17.884                             : Chapter 07
  100. 00:41:29.320                             : Chapter 08
  101. 00:48:01.170                             : Chapter 09
  102. 00:53:08.685                             : Chapter 10
  103. 01:00:19.324                             : Chapter 11
  104. 01:04:29.616                             : Chapter 12
  105. 01:10:20.675                             : Chapter 13
  106. 01:18:24.116                             : Chapter 14
  107. 01:23:52.444                             : Chapter 15
  108. 01:29:51.970                             : Chapter 16
  109. 01:38:43.709                             : Chapter 17
复制代码





                                       
                                       

                                       
                                       
                                       




回复

使用道具 举报

懒得打字嘛,点击右侧快捷回复 【右侧内容,后台自定义】
您需要登录后才可以回帖 登录 | 立即加入

本版积分规则

Archiver|小黑屋| 蓝光电影网 |网站地图

Copyright © 2021 Comsenz Inc. Powered by 蓝光电影网

蓝光电影网

本站内容由用户自主分享和转载自互联网,转载目的在于传递更多信息,并不代表本网赞同其观点和对其真实性负责。

如有侵权、违反国家法律政策行为,请联系我们,我们会第一时间及时清除和处理!

举报反馈邮箱:[email protected]

快速回复 返回顶部 返回列表