找回密码

蓝光电影网

查看: 9|回复: 0

[动作] 狩猎 Hunted.2020.1080p.BluRay.x264.DTS-MT 16.49GB

[复制链接]
蓝光币
382
发表于 2021-5-18 16:03:40 | 显示全部楼层 |阅读模式
[img][/img]

◎译  名 狩猎/Cosmogonie/大猎逃(台)
◎片  名 Hunted
◎年  代 2020
◎产  地 比利时,法国,爱尔兰
◎类  别 行动 / 惊悚
◎语  言 英语
◎上映日期 2020-08-21(加拿大奇异电影节)
◎豆瓣评分 5.0/10 from 429 users
◎豆瓣链接 https://movie.douban.com/subject/35156050/
◎片  长 86分钟
◎导  演 文森特·帕兰德 Vincent Paronnaud
◎编  剧 文森特·帕兰德 Vincent Paronnaud / Léa Pernollet / 史蒂芬·希尔兹 Stephen Shields / 戴维·H·皮克林 David H. Pickering
◎主  演 露西·德拜 Lucie Debay
       克里斯蒂安·布朗查特 Christian Bronchart
       阿里耶·沃索尔特 Arieh Worthalter
       赖恩·布罗迪 Ryan Brodie
       Kevin Van Doorslaer
◎标  签 惊悚 | 比利时 | 犯罪 | 暴力 | 2020 | 可骇 | 比利时电影 | 2021
◎简  介


  夏娃在酒吧碰见了她以为是一个有魅力的家伙。 但是,一旦她意想到自己碰到了神经病患者和他的朋友,工作就大错特错了。 他们停止了追逐灭亡行动,直到她决议与森林作斗争,成为她的唯一盟友。
  1. Video
  2. ID                                       : 1
  3. Format                                   : AVC
  4. Format/Info                              : Advanced Video Codec
  5. Format profile                           : [email protected]
  6. Format settings                          : CABAC / 4 Ref Frames
  7. Format settings, CABAC                   : Yes
  8. Format settings, Reference frames        : 4 frames
  9. Codec ID                                 : V_MPEG4/ISO/AVC
  10. Duration                                 : 1 h 27 min
  11. Bit rate                                 : 25.6 Mb/s
  12. Width                                    : 1 920 pixels
  13. Height                                   : 1 042 pixels
  14. Display aspect ratio                     : 1.85:1
  15. Frame rate mode                          : Constant
  16. Frame rate                               : 23.976 (24000/1001/189150) FPS
  17. Color space                              : YUV
  18. Chroma subsampling                       : 4:2:0
  19. Bit depth                                : 8 bits
  20. Scan type                                : Progressive
  21. Bits/(Pixel*Frame)                       : 0.534
  22. Stream size                              : 15.6 GiB (94%)
  23. Writing library                          : x264 core 157 r2938 2b00a84 [email protected] Mod
  24. Encoding settings                        : cabac=1 / ref=4 / deblock=1:-3:-3 / analyse=0x3:0x133 / me=umh / subme=10 / psy=1 / psy_rd=1.05:0.00 / mixed_ref=1 / me_range=32 / chroma_me=1 / trellis=2 / 8x8dct=1 / cqm=0 / deadzone=21,11 / fast_pskip=0 / chroma_qp_offset=-2 / threads=12 / lookahead_threads=2 / sliced_threads=0 / nr=0 / decimate=0 / interlaced=0 / bluray_compat=0 / constrained_intra=0 / bframes=8 / b_pyramid=2 / b_adapt=2 / b_bias=0 / direct=3 / weightb=1 / open_gop=0 / weightp=2 / keyint=250 / keyint_min=24 / scenecut=40 / intra_refresh=0 / rc_lookahead=250 / rc=crf / mbtree=0 / crf=16.8 / qcomp=0.60 / qpmin=0 / qpmax=69 / qpstep=4 / vbv_maxrate=62500 / vbv_bufsize=78125 / crf_max=0.0 / nal_hrd=none / filler=0 / ip_ratio=1.30 / pb_ratio=1.20 / aq=3:0.80
  25. Language                                 : English
  26. Default                                  : Yes
  27. Forced                                   : No
  28. Color range                              : Limited
  29. Color primaries                          : BT.709
  30. Matrix coefficients                      : BT.709
  31. Audio
  32. ID                                       : 2
  33. Format                                   : DTS
  34. Format/Info                              : Digital Theater Systems
  35. Codec ID                                 : A_DTS
  36. Duration                                 : 1 h 27 min
  37. Bit rate mode                            : Constant
  38. Bit rate                                 : 1 509 kb/s
  39. Channel(s)                               : 6 channels
  40. Channel layout                           : C L R Ls Rs LFE
  41. Sampling rate                            : 48.0 kHz
  42. Frame rate                               : 93.750 FPS (512 SPF)
  43. Bit depth                                : 16 bits
  44. Compression mode                         : Lossy
  45. Stream size                              : 939 MiB (6%)
  46. Language                                 : English
  47. Default                                  : Yes
  48. Forced                                   : No
  49. Text
  50. ID                                       : 3
  51. Format                                   : UTF-8
  52. Codec ID                                 : S_TEXT/UTF8
  53. Codec ID/Info                            : UTF-8 Plain Text
  54. Duration                                 : 1 h 22 min
  55. Bit rate                                 : 33 b/s
  56. Count of elements                        : 987
  57. Stream size                              : 20.3 KiB (0%)
  58. Title                                    : SRT
  59. Language                                 : English
  60. Default                                  : Yes
  61. Forced                                   : No
  62. Menu
  63. 00:00:00.000                             : Chapter 01
  64. 00:08:47.861                             : Chapter 02
  65. 00:19:10.524                             : Chapter 03
  66. 00:28:48.435                             : Chapter 04
  67. 00:38:13.833                             : Chapter 05
  68. 00:49:17.830                             : Chapter 06
  69. 01:00:24.621                             : Chapter 07
  70. 01:09:22.325                             : Chapter 08
  71. 01:18:51.852                             : Chapter 09
复制代码




                                       
                                       

                                       
                                       
                                       




回复

使用道具 举报

懒得打字嘛,点击右侧快捷回复 【右侧内容,后台自定义】
您需要登录后才可以回帖 登录 | 立即加入

本版积分规则

Archiver|小黑屋| 蓝光电影网 |网站地图

Copyright © 2021 Comsenz Inc. Powered by 蓝光电影网

蓝光电影网

本站内容由用户自主分享和转载自互联网,转载目的在于传递更多信息,并不代表本网赞同其观点和对其真实性负责。

如有侵权、违反国家法律政策行为,请联系我们,我们会第一时间及时清除和处理!

举报反馈邮箱:[email protected]

快速回复 返回顶部 返回列表