找回密码

蓝光电影网

查看: 19|回复: 0

[恐怖] 爱宠/宠物情劫 Pet.2016.1080p.BluRay.X264-AMIABLE 7.65GB

[复制链接]
蓝光币
382
发表于 2020-12-4 09:00:43 | 显示全部楼层 |阅读模式


◎译  名 爱宠/宠物情劫(台)
◎片  名 Pet
◎年  代 2016
◎产  地 西班牙,美国
◎类  别 可骇
◎语  言 英语
◎上映日期 2016-03-11(西南偏南电影节) / 2016-12-02(美国)
◎IMDb评分  5.7/10 from 15627 users
◎IMDb链接  https://www.imdb.com/title/tt1183374/
◎豆瓣评分 6.0/10 from 5763 users
◎豆瓣链接 https://movie.douban.com/subject/3012033/
◎片  长 94分钟
◎导  演 卡莱斯·托伦斯 Carles Torrens
◎编  剧 杰瑞米·斯莱特 Jeremy Slater
◎主  演 多米尼克·莫纳汉 Dominic Monaghan
       克塞尼亚·索罗 Ksenia Solo
       詹妮特·麦柯迪 Jennette McCurdy
       达旺·麦克唐纳 Da'Vone McDonald
       内森·帕森斯 Nathan Parsons
       珍妮特·桑 Janet Song
       加里·J·滕尼克利夫 Gary J. Tunnicliffe
       丹尼斯·加西亚 Denise Garcia
       约翰·罗斯·鲍伊 John Ross Bowie
       肖恩·布莱克默 Sean Blakemore
       艾琳·罗森 Irene Roseen
       阿拉斯代尔·马丁 Alasdair Martin
       哈莫尼·麦克利戈特 Harmony McElligott
       瑞秋·鲁滨逊 Rachel Robinson
       卡莱斯·托伦斯 Carles Torrens
◎标  签 惊悚 | 犯罪 | 可骇 | 美国 | 悬疑 | 心理 | 软禁 | 血腥
◎简  介


  《峰回路转》卡里斯陶伦斯执导,《魔戒三部曲》多明尼克莫纳罕、《黑天鹅》柯赛妮亚索罗主演。BDSM连系笼女禁锢题材,惊狂混血反击,让我养你一辈子!
  
  超有爱心的赛斯在动物之家工作,他天天仔细庇护小动物,对于只要根基人为的日子也甘之如饴。某天她在公车上巧遇门生期间的暗恋工具荷莉,她清新亮丽的气质让赛斯心里中寂静多年的愿望再次被叫醒。
  
  赛斯诡计要拉近与荷莉之间的间隔,可是郎有情妹无意。没想到两人久别重逢的初次碰头,荷莉居然落空认识,苏醒后她发现自己衣不蔽体,还被关在动物之家地下室的铁笼当中!爱到落空明智的赛斯口口声声暗示会这么做,一切都是由于深爱着荷莉。但是,被受困笼中的荷莉也不是省油的灯,各怀鬼胎的两人随即展开惊悚古怪的对峙……
  
  典范的猫捉老鼠游戏,刻画出钩心斗角的主从之战。究竟谁是仆人、谁是宠物,不到最初谁也不晓得!
  1. Video
  2. ID                                       : 1
  3. Format                                   : AVC
  4. Format/Info                              : Advanced Video Codec
  5. Format profile                           : [email protected]
  6. Format settings                          : CABAC / 5 Ref Frames
  7. Format settings, CABAC                   : Yes
  8. Format settings, Reference frames        : 5 frames
  9. Codec ID                                 : V_MPEG4/ISO/AVC
  10. Duration                                 : 1 h 33 min
  11. Bit rate                                 : 10.2 Mb/s
  12. Width                                    : 1 920 pixels
  13. Height                                   : 808 pixels
  14. Display aspect ratio                     : 2.40:1
  15. Frame rate mode                          : Constant
  16. Frame rate                               : 23.976 (24000/1001/189150) FPS
  17. Color space                              : YUV
  18. Chroma subsampling                       : 4:2:0
  19. Bit depth                                : 8 bits
  20. Scan type                                : Progressive
  21. Bits/(Pixel*Frame)                       : 0.273
  22. Stream size                              : 6.51 GiB (85%)
  23. Writing library                          : x264 core 148 r2762+10 5d7902f / tmod 5d7902f X86_64
  24. Encoding settings                        : cabac=1 / ref=5 / deblock=1:-3:-3 / analyse=0x3:0x113 / me=umh / subme=11 / psy=1 / fade_compensate=0.00 / psy_rd=1.05:0.15 / mixed_ref=1 / me_range=48 / chroma_me=1 / trellis=2 / 8x8dct=1 / cqm=0 / deadzone=6,6 / fast_pskip=0 / chroma_qp_offset=-3 / threads=12 / lookahead_threads=3 / sliced_threads=0 / nr=0 / decimate=0 / interlaced=0 / bluray_compat=0 / constrained_intra=0 / fgo=0 / bframes=11 / b_pyramid=2 / b_adapt=2 / b_bias=0 / direct=3 / weightb=1 / open_gop=0 / weightp=2 / keyint=250 / keyint_min=23 / scenecut=40 / intra_refresh=0 / rc=2pass / mbtree=0 / bitrate=10160 / ratetol=1.0 / qcomp=0.70 / qpmin=0:0:0 / qpmax=69:69:69 / qpstep=4 / cplxblur=20.0 / qblur=0.5 / ip_ratio=1.10 / pb_ratio=1.10 / aq=3:0.75 / aq-sensitivity=10.00 / aq-factor=1.00:1.00:1.00 / aq2=0 / aq3=0
  25. Language                                 : English
  26. Default                                  : Yes
  27. Forced                                   : No

  28. Audio
  29. ID                                       : 2
  30. Format                                   : DTS
  31. Format/Info                              : Digital Theater Systems
  32. Codec ID                                 : A_DTS
  33. Duration                                 : 1 h 33 min
  34. Bit rate mode                            : Constant
  35. Bit rate                                 : 1 509 kb/s
  36. Channel(s)                               : 6 channels
  37. Channel layout                           : C L R Ls Rs LFE
  38. Sampling rate                            : 48.0 kHz
  39. Frame rate                               : 93.750 FPS (512 SPF)
  40. Bit depth                                : 24 bits
  41. Compression mode                         : Lossy
  42. Stream size                              : 1 014 MiB (13%)
  43. Language                                 : English
  44. Default                                  : Yes
  45. Forced                                   : No

  46. Text #1
  47. ID                                       : 3
  48. Format                                   : UTF-8
  49. Codec ID                                 : S_TEXT/UTF8
  50. Codec ID/Info                            : UTF-8 Plain Text
  51. Title                                    : English
  52. Language                                 : English
  53. Default                                  : No
  54. Forced                                   : No

  55. Text #2
  56. ID                                       : 4
  57. Format                                   : UTF-8
  58. Codec ID                                 : S_TEXT/UTF8
  59. Codec ID/Info                            : UTF-8 Plain Text
  60. Title                                    : English (SDH)
  61. Language                                 : English
  62. Default                                  : No
  63. Forced                                   : No

  64. Menu
  65. 00:00:00.000                             : en:00:00:00.000
  66. 00:05:02.302                             : en:00:05:02.302
  67. 00:10:58.950                             : en:00:10:58.950
  68. 00:17:11.197                             : en:00:17:11.197
  69. 00:23:07.261                             : en:00:23:07.261
  70. 00:29:25.639                             : en:00:29:25.639
  71. 00:36:22.889                             : en:00:36:22.889
  72. 00:42:04.897                             : en:00:42:04.897
  73. 00:46:25.866                             : en:00:46:25.866
  74. 00:51:35.467                             : en:00:51:35.467
  75. 00:55:40.837                             : en:00:55:40.837
  76. 01:01:53.126                             : en:01:01:53.126
  77. 01:08:56.966                             : en:01:08:56.966
  78. 01:15:48.586                             : en:01:15:48.586
  79. 01:21:51.573                             : en:01:21:51.573
  80. 01:30:39.184                             : en:01:30:39.184
复制代码




                                       
                                       

                                       
                                       
                                       




回复

使用道具 举报

懒得打字嘛,点击右侧快捷回复 【右侧内容,后台自定义】
您需要登录后才可以回帖 登录 | 立即加入

本版积分规则

Archiver|小黑屋| 蓝光电影网 |网站地图

Copyright © 2021 Comsenz Inc. Powered by 蓝光电影网

蓝光电影网

本站内容由用户自主分享和转载自互联网,转载目的在于传递更多信息,并不代表本网赞同其观点和对其真实性负责。

如有侵权、违反国家法律政策行为,请联系我们,我们会第一时间及时清除和处理!

举报反馈邮箱:[email protected]

快速回复 返回顶部 返回列表