找回密码

蓝光电影网

查看: 25|回复: 0

[爱情] 千金/移民足迹 Thousand.Pieces.of.Gold.1990.1080p.BluRay.x264.FLAC.2.0-SaL 8.85GB

[复制链接]
蓝光币
382
发表于 2020-9-27 22:14:07 | 显示全部楼层 |阅读模式


◎译  名 千金/移民萍踪
◎片  名 Thousand Pieces of Gold
◎年  代 1991
◎产  地 美国,英国
◎类  别 恋爱 / 西部
◎语  言 英语
◎上映日期 1991-11
◎IMDb评分  6.9/10 from 552 users
◎IMDb链接  https://www.imdb.com/title/tt0100774/
◎豆瓣评分 7.8/10 from 61 users
◎豆瓣链接 https://movie.douban.com/subject/4194881/
◎片  长 105 分钟
◎导  演 Nancy Kelly
◎编  剧 Anne Makepeace
◎主  演 赵家玲 Rosalind Chao
       克里斯·库珀 Chris Cooper
       迈克尔·保罗·陈 Michael Paul Chan
       Jimmie F. Skaggs
       丹尼斯·邓恩 Dennis Dun
       贝斯·布罗德里克 Beth Broderick
       Kim Chan
       威尔·奥德哈姆 Will Oldham
◎标  签 移民萍踪 | 美国电影 | 美国 | 西部 | 典范 | 恋爱 | 中国 | 文学改编
◎简  介


  影片按照林露德的第一部同名列传小说改编而来,历史上确有其人,报告了一个华人女子在18世纪美国西部淘金期间艰辛奋斗的故事。“千金”波莉·比米斯(Polly Bemis)原名纳顺·拉鲁(Lalu Nathoy),1853年诞生于中国华北地域中蒙鸿沟的一个农民家庭。为了生存,拉鲁的父亲被迫把她卖给了匪贼,换回两袋种子。后来在美国拉鲁再次被人估客以2500美圆卖给爱达荷州沃伦(Warren)镇的一个华人小酒店东。最初白人查理·比米斯用玩扑克牌赌博的法子从酒店老板手里赢得了她。受过杰出教育的比米斯是新英格兰名门以后,他给了波莉自在。未几,比米斯被一矿工用枪击中,是波莉用剃须刀把子弹挖出,救了他的人命。后来波莉和比米斯结了婚,两人在鲑鱼河(Salmon River) 边的峡谷底斥地了农场。波莉用她的中草药为孩子们治病,深受当地人们亲爱。波莉·比米斯于1933年在美国爱达荷州去世。
  1. Video
  2. ID                                       : 1
  3. Format                                   : AVC
  4. Format/Info                              : Advanced Video Codec
  5. Format profile                           : [email protected]
  6. Format settings                          : CABAC / 4 Ref Frames
  7. Format settings, CABAC                   : Yes
  8. Format settings, Reference frames        : 4 frames
  9. Codec ID                                 : V_MPEG4/ISO/AVC
  10. Duration                                 : 1 h 46 min
  11. Bit rate                                 : 11.3 Mb/s
  12. Width                                    : 1 920 pixels
  13. Height                                   : 1 038 pixels
  14. Display aspect ratio                     : 1.85:1
  15. Frame rate mode                          : Constant
  16. Frame rate                               : 23.976 (24000/1001/189150) FPS
  17. Color space                              : YUV
  18. Chroma subsampling                       : 4:2:0
  19. Bit depth                                : 8 bits
  20. Scan type                                : Progressive
  21. Bits/(Pixel*Frame)                       : 0.237
  22. Stream size                              : 8.45 GiB (96%)
  23. Writing library                          : x264 core 157 r2935 545de2f
  24. Encoding settings                        : cabac=1 / ref=4 / deblock=1:-3:-2 / analyse=0x3:0x133 / me=umh / subme=10 / psy=1 / psy_rd=1.00:0.25 / mixed_ref=1 / me_range=32 / chroma_me=1 / trellis=2 / 8x8dct=1 / cqm=0 / deadzone=6,6 / fast_pskip=0 / chroma_qp_offset=-4 / threads=6 / lookahead_threads=1 / sliced_threads=0 / nr=0 / decimate=0 / interlaced=0 / bluray_compat=0 / constrained_intra=0 / bframes=8 / b_pyramid=2 / b_adapt=2 / b_bias=0 / direct=3 / weightb=1 / open_gop=0 / weightp=2 / keyint=250 / keyint_min=23 / scenecut=40 / intra_refresh=0 / rc_lookahead=150 / rc=crf / mbtree=0 / crf=18.1 / qcomp=0.75 / qpmin=0 / qpmax=69 / qpstep=4 / vbv_maxrate=62500 / vbv_bufsize=78125 / crf_max=0.0 / nal_hrd=none / filler=0 / ip_ratio=1.15 / pb_ratio=1.12 / aq=2:0.65
  25. Default                                  : Yes
  26. Forced                                   : No
  27. Color range                              : Limited
  28. Color primaries                          : BT.709
  29. Matrix coefficients                      : BT.709
  30. Audio #1
  31. ID                                       : 2
  32. Format                                   : FLAC
  33. Format/Info                              : Free Lossless Audio Codec
  34. Codec ID                                 : A_FLAC
  35. Duration                                 : 1 h 46 min
  36. Bit rate mode                            : Variable
  37. Bit rate                                 : 443 kb/s
  38. Channel(s)                               : 2 channels
  39. Sampling rate                            : 48.0 kHz
  40. Frame rate                               : 11.719 FPS (4096 SPF)
  41. Bit depth                                : 16 bits
  42. Compression mode                         : Lossless
  43. Delay relative to video                  : 65 ms
  44. Stream size                              : 339 MiB (4%)
  45. Writing library                          : libFLAC 1.2.1 (UTC 2007-09-17)
  46. Language                                 : English
  47. Default                                  : Yes
  48. Forced                                   : No
  49. Audio #2
  50. ID                                       : 4
  51. Format                                   : AAC LC
  52. Format/Info                              : Advanced Audio Codec Low Complexity
  53. Codec ID                                 : A_AAC-2
  54. Duration                                 : 1 h 46 min
  55. Bit rate                                 : 73.5 kb/s
  56. Channel(s)                               : 2 channels
  57. Channel layout                           : L R
  58. Sampling rate                            : 48.0 kHz
  59. Frame rate                               : 46.875 FPS (1024 SPF)
  60. Compression mode                         : Lossy
  61. Stream size                              : 56.2 MiB (1%)
  62. Title                                    : Commentary with Nancy Kelly and producer Kenji Yamamoto
  63. Language                                 : English
  64. Default                                  : No
  65. Forced                                   : No
  66. Text
  67. ID                                       : 3
  68. Format                                   : UTF-8
  69. Codec ID                                 : S_TEXT/UTF8
  70. Codec ID/Info                            : UTF-8 Plain Text
  71. Duration                                 : 1 h 42 min
  72. Bit rate                                 : 37 b/s
  73. Count of elements                        : 1172
  74. Stream size                              : 27.9 KiB (0%)
  75. Title                                    : English SDH
  76. Language                                 : English
  77. Default                                  : No
  78. Forced                                   : No
  79. Menu
  80. 00:00:00.000                             : en:Chapter 01
  81. 00:11:27.395                             : en:Chapter 02
  82. 00:20:29.728                             : en:Chapter 03
  83. 00:32:05.882                             : en:Chapter 04
  84. 00:40:12.160                             : en:Chapter 05
  85. 00:50:33.155                             : en:Chapter 06
  86. 00:59:53.131                             : en:Chapter 07
  87. 01:09:41.469                             : en:Chapter 08
  88. 01:20:39.251                             : en:Chapter 09
  89. 01:30:42.020                             : en:Chapter 10
复制代码






                                       
                                       

                                       
                                       
                                       




回复

使用道具 举报

懒得打字嘛,点击右侧快捷回复 【右侧内容,后台自定义】
您需要登录后才可以回帖 登录 | 立即加入

本版积分规则

Archiver|小黑屋| 蓝光电影网 |网站地图

Copyright © 2021 Comsenz Inc. Powered by 蓝光电影网

蓝光电影网

本站内容由用户自主分享和转载自互联网,转载目的在于传递更多信息,并不代表本网赞同其观点和对其真实性负责。

如有侵权、违反国家法律政策行为,请联系我们,我们会第一时间及时清除和处理!

举报反馈邮箱:[email protected]

快速回复 返回顶部 返回列表