找回密码

蓝光电影网

查看: 19|回复: 0

[动作] 群尸屠城 Demons.1985.REMASTERED.1080p.BluRay.x264.FLAC.2.0-MaG 10.05GB

[复制链接]
蓝光币
386
发表于 2021-5-16 09:04:25 | 显示全部楼层 |阅读模式
[img][/img]

◎译  名 群尸屠城/Demons/月夜惊心/猛鬼戏院
◎片  名 Dèmoni
◎年  代 1985
◎产  地 意大利
◎类  别 行动 / 可骇
◎语  言 英语,意大利语
◎上映日期 1985-10-04
◎豆瓣评分 6.8/10 from 1282 users
◎豆瓣链接 https://movie.douban.com/subject/1593738/
◎片  长 88分钟
◎导  演 兰帕德·帕瓦 Lamberto Bava
◎编  剧 达里奥·阿基多 Dario Argento / 兰帕德·帕瓦 Lamberto Bava / 弗兰科·费里尼 Franco Ferrini / 达尔达诺·萨凯蒂 Dardano Sacchetti
◎主  演 塞尔吉奥·斯蒂韦尔蒂 Sergio Stivaletti
       兰帕德·帕瓦 Lamberto Bava
       Bobby Rhodes
       Peter Pitsch
       Goffredo Unger
       娜塔莎·霍维 Natasha Hovey
       Giovanni Frezza
       卡尔·泽尼 Karl Zinny
       妮可莱塔·埃尔米 Nicoletta Elmi
       乌尔巴诺·巴尔贝里尼 Urbano Barberini
       米歇尔·索伊 Michele Soavi
       伊丽亚娜·米格里欧 Eliana Miglio
       Enrica Maria Scrivano
◎标  签 可骇 | 意大利 | 丧尸 | 僵尸 | 惊悚 | Cult | 1985 | 血腥
◎简  介


  西柏林,一家新完工的电影院正在派发电影票,招揽观众。影院首映的是一部名为《魔鬼》的可骇影片。年轻女孩绮丽儿(Natasha Hovey 纳塔莎?霍维 饰)对影片颇感爱好,她约请好友凯茜(Paola Cozzo 饰)一同逃课前往电影院。
  
  途中她们碰到另一伙年轻人,其中一个女人将影片宣传用的面具戴在脸上,却失慎割伤了皮肤。这个失慎的闪失致使了无可挽回的大灾难,该女子变玉成身发绿的可骇恶魔,凡是被她抓伤或咬到的也会发生一样的变化。人们四散逃命,可骇敏捷舒展。绮丽儿她们该若何逃诞生天呢?
  1. Video
  2. ID                                       : 1
  3. Format                                   : AVC
  4. Format/Info                              : Advanced Video Codec
  5. Format profile                           : [email protected]
  6. Format settings                          : CABAC / 4 Ref Frames
  7. Format settings, CABAC                   : Yes
  8. Format settings, Reference frames        : 4 frames
  9. Codec ID                                 : V_MPEG4/ISO/AVC
  10. Duration                                 : 1 h 28 min
  11. Bit rate                                 : 14.8 Mb/s
  12. Width                                    : 1 800 pixels
  13. Height                                   : 1 080 pixels
  14. Display aspect ratio                     : 5:3
  15. Frame rate mode                          : Constant
  16. Frame rate                               : 24.000 FPS
  17. Color space                              : YUV
  18. Chroma subsampling                       : 4:2:0
  19. Bit depth                                : 8 bits
  20. Scan type                                : Progressive
  21. Bits/(Pixel*Frame)                       : 0.316
  22. Stream size                              : 9.11 GiB (91%)
  23. Writing library                          : x264 core 157 r2935 545de2f
  24. Encoding settings                        : cabac=1 / ref=3 / deblock=1:-3:-3 / analyse=0x3:0x133 / me=umh / subme=10 / psy=1 / psy_rd=1.00:0.00 / mixed_ref=1 / me_range=32 / chroma_me=1 / trellis=2 / 8x8dct=1 / cqm=0 / deadzone=21,11 / fast_pskip=0 / chroma_qp_offset=-2 / threads=24 / lookahead_threads=4 / sliced_threads=0 / nr=0 / decimate=1 / interlaced=0 / bluray_compat=0 / constrained_intra=0 / bframes=8 / b_pyramid=2 / b_adapt=2 / b_bias=0 / direct=3 / weightb=1 / open_gop=0 / weightp=2 / keyint=240 / keyint_min=24 / scenecut=40 / intra_refresh=0 / rc_lookahead=60 / rc=crf / mbtree=0 / crf=21.5 / qcomp=0.60 / qpmin=0 / qpmax=69 / qpstep=4 / vbv_maxrate=62500 / vbv_bufsize=78125 / crf_max=0.0 / nal_hrd=none / filler=0 / ip_ratio=1.40 / pb_ratio=1.30 / aq=3:1.00
  25. Default                                  : Yes
  26. Forced                                   : No
  27. Color range                              : Limited
  28. Color primaries                          : BT.709
  29. Transfer characteristics                 : BT.709
  30. Matrix coefficients                      : BT.709
  31. Audio #1
  32. ID                                       : 2
  33. Format                                   : FLAC
  34. Format/Info                              : Free Lossless Audio Codec
  35. Codec ID                                 : A_FLAC
  36. Duration                                 : 1 h 28 min
  37. Bit rate mode                            : Variable
  38. Bit rate                                 : 564 kb/s
  39. Channel(s)                               : 2 channels
  40. Channel layout                           : L R
  41. Sampling rate                            : 48.0 kHz
  42. Frame rate                               : 11.719 FPS (4096 SPF)
  43. Bit depth                                : 16 bits
  44. Compression mode                         : Lossless
  45. Stream size                              : 357 MiB (3%)
  46. Title                                    : Italian FLAC 2.0 Audio
  47. Writing library                          : libFLAC 1.2.1 (UTC 2007-09-17)
  48. Language                                 : Italian
  49. Default                                  : Yes
  50. Forced                                   : No
  51. Audio #2
  52. ID                                       : 3
  53. Format                                   : FLAC
  54. Format/Info                              : Free Lossless Audio Codec
  55. Codec ID                                 : A_FLAC
  56. Duration                                 : 1 h 28 min
  57. Bit rate mode                            : Variable
  58. Bit rate                                 : 594 kb/s
  59. Channel(s)                               : 2 channels
  60. Channel layout                           : L R
  61. Sampling rate                            : 48.0 kHz
  62. Frame rate                               : 11.719 FPS (4096 SPF)
  63. Bit depth                                : 16 bits
  64. Compression mode                         : Lossless
  65. Stream size                              : 375 MiB (4%)
  66. Title                                    : English \'International\' Dub FLAC 2.0 Audio
  67. Writing library                          : libFLAC 1.2.1 (UTC 2007-09-17)
  68. Language                                 : English
  69. Default                                  : No
  70. Forced                                   : No
  71. Audio #3
  72. ID                                       : 4
  73. Format                                   : AC-3
  74. Format/Info                              : Audio Coding 3
  75. Commercial name                          : Dolby Digital
  76. Codec ID                                 : A_AC3
  77. Duration                                 : 1 h 28 min
  78. Bit rate mode                            : Constant
  79. Bit rate                                 : 112 kb/s
  80. Channel(s)                               : 2 channels
  81. Channel layout                           : L R
  82. Sampling rate                            : 48.0 kHz
  83. Frame rate                               : 31.250 FPS (1536 SPF)
  84. Compression mode                         : Lossy
  85. Stream size                              : 70.8 MiB (1%)
  86. Title                                    : Commentary with Film Critics Kat Ellinger and Heather Drain, Co-hosts of the Hell’s Bells podcast
  87. Language                                 : English
  88. Service kind                             : Complete Main
  89. Default                                  : No
  90. Forced                                   : No
  91. Audio #4
  92. ID                                       : 5
  93. Format                                   : AC-3
  94. Format/Info                              : Audio Coding 3
  95. Commercial name                          : Dolby Digital
  96. Codec ID                                 : A_AC3
  97. Duration                                 : 1 h 28 min
  98. Bit rate mode                            : Constant
  99. Bit rate                                 : 112 kb/s
  100. Channel(s)                               : 2 channels
  101. Channel layout                           : L R
  102. Sampling rate                            : 48.0 kHz
  103. Frame rate                               : 31.250 FPS (1536 SPF)
  104. Compression mode                         : Lossy
  105. Stream size                              : 70.8 MiB (1%)
  106. Title                                    : Archival Commentary with Director/Co-Writer Lamberto Bava and Special Makeup FX Artist Sergio Stivaletti, moderated by Journalist Loris Curci
  107. Language                                 : English
  108. Service kind                             : Complete Main
  109. Default                                  : No
  110. Forced                                   : No
  111. Audio #5
  112. ID                                       : 6
  113. Format                                   : AC-3
  114. Format/Info                              : Audio Coding 3
  115. Commercial name                          : Dolby Digital
  116. Codec ID                                 : A_AC3
  117. Duration                                 : 1 h 28 min
  118. Bit rate mode                            : Constant
  119. Bit rate                                 : 112 kb/s
  120. Channel(s)                               : 2 channels
  121. Channel layout                           : L R
  122. Sampling rate                            : 48.0 kHz
  123. Frame rate                               : 31.250 FPS (1536 SPF)
  124. Compression mode                         : Lossy
  125. Stream size                              : 70.8 MiB (1%)
  126. Title                                    : Archival Commentary with Director/Co-Writer Lamberto Bava, Special Makeup FX Artist Sergio Stivaletti, Composer Claudio Simonetti and Actress Geretta Geretta (Rosemary)
  127. Language                                 : Italian
  128. Service kind                             : Complete Main
  129. Default                                  : No
  130. Forced                                   : No
  131. Text #1
  132. ID                                       : 7
  133. Format                                   : UTF-8
  134. Codec ID                                 : S_TEXT/UTF8
  135. Codec ID/Info                            : UTF-8 Plain Text
  136. Duration                                 : 1 h 24 min
  137. Bit rate                                 : 29 b/s
  138. Count of elements                        : 575
  139. Stream size                              : 18.2 KiB (0%)
  140. Title                                    : English for Italian Audio
  141. Language                                 : English
  142. Default                                  : Yes
  143. Forced                                   : No
  144. Text #2
  145. ID                                       : 8
  146. Format                                   : PGS
  147. Muxing mode                              : zlib
  148. Codec ID                                 : S_HDMV/PGS
  149. Codec ID/Info                            : Picture based subtitle format used on BDs/HD-DVDs
  150. Duration                                 : 1 h 24 min
  151. Bit rate                                 : 18.4 kb/s
  152. Count of elements                        : 1152
  153. Stream size                              : 11.1 MiB (0%)
  154. Title                                    : English for Italian Audio
  155. Language                                 : English
  156. Default                                  : No
  157. Forced                                   : No
  158. Text #3
  159. ID                                       : 9
  160. Format                                   : UTF-8
  161. Codec ID                                 : S_TEXT/UTF8
  162. Codec ID/Info                            : UTF-8 Plain Text
  163. Duration                                 : 1 h 22 min
  164. Bit rate                                 : 39 b/s
  165. Count of elements                        : 770
  166. Stream size                              : 23.6 KiB (0%)
  167. Title                                    : English SDH for English Audio
  168. Language                                 : English
  169. Default                                  : No
  170. Forced                                   : No
  171. Text #4
  172. ID                                       : 10
  173. Format                                   : PGS
  174. Muxing mode                              : zlib
  175. Codec ID                                 : S_HDMV/PGS
  176. Codec ID/Info                            : Picture based subtitle format used on BDs/HD-DVDs
  177. Duration                                 : 1 h 25 min
  178. Bit rate                                 : 23.9 kb/s
  179. Count of elements                        : 1542
  180. Stream size                              : 14.6 MiB (0%)
  181. Title                                    : English SDH for English Audio
  182. Language                                 : English
  183. Default                                  : No
  184. Forced                                   : No
  185. Text #5
  186. ID                                       : 11
  187. Format                                   : PGS
  188. Muxing mode                              : zlib
  189. Codec ID                                 : S_HDMV/PGS
  190. Codec ID/Info                            : Picture based subtitle format used on BDs/HD-DVDs
  191. Duration                                 : 1 h 26 min
  192. Bit rate                                 : 41.5 kb/s
  193. Count of elements                        : 1821
  194. Stream size                              : 25.8 MiB (0%)
  195. Title                                    : English subtitles for Archival Commentary with Director/Co-Writer Lamberto Bava, Special Makeup FX Artist Sergio Stivaletti, Composer Claudio Simonetti and Actress Geretta Geretta (Rosemary)
  196. Language                                 : English
  197. Default                                  : No
  198. Forced                                   : No
  199. Menu
  200. 00:00:00.000                             : :Main Titles
  201. 00:01:30.459                             : :Masked Phantom
  202. 00:05:26.376                             : :Almost Showtime!
  203. 00:11:24.208                             : :Tomb of Nostradamus
  204. 00:19:25.626                             : :Life Imitates Art
  205. 00:25:54.584                             : :Screams in Dolby
  206. 00:31:09.001                             : :Terror in the Aisles
  207. 00:39:13.709                             : :White Punks on Dope
  208. 00:49:46.125                             : :No Escape
  209. 00:54:01.959                             : :My Girlfriend, The Demon
  210. 00:58:54.499                             : :Demonic Eruption
  211. 01:08:21.959                             : :Fast as a Shark
  212. 01:13:57.041                             : :Death From Above
  213. 01:18:20.084                             : :Rooftop Escape
  214. 01:21:22.251                             : :On the Run
  215. 01:24:44.584                             : :End Titles
复制代码




                                       
                                       

                                       
                                       
                                       




回复

使用道具 举报

懒得打字嘛,点击右侧快捷回复 【右侧内容,后台自定义】
您需要登录后才可以回帖 登录 | 立即加入

本版积分规则

Archiver|小黑屋| 蓝光电影网 |网站地图

Copyright © 2021 Comsenz Inc. Powered by 蓝光电影网

蓝光电影网

本站内容由用户自主分享和转载自互联网,转载目的在于传递更多信息,并不代表本网赞同其观点和对其真实性负责。

如有侵权、违反国家法律政策行为,请联系我们,我们会第一时间及时清除和处理!

举报反馈邮箱:[email protected]

快速回复 返回顶部 返回列表