找回密码

蓝光电影网

查看: 19|回复: 0

[恐怖] 咒怨2 Ju-on.The.Grudge.2.2003.1080p.BluRay.x264-USURY 9.38GB

[复制链接]
蓝光币
382
发表于 2020-12-4 08:39:28 | 显示全部楼层 |阅读模式


◎译  名 咒怨2/Ju-on: The Grudge 2/The Grudge 2/咒怨循环
◎片  名 呪怨2
◎年  代 2003
◎产  地 日本
◎类  别 可骇
◎语  言 日语
◎上映日期 2003-05-16(戛纳电影节) / 2003-08-23(日本)
◎IMDb评分  6.4/10 from 8931 users
◎IMDb链接  https://www.imdb.com/title/tt0367913/
◎豆瓣评分 7.4/10 from 44730 users
◎豆瓣链接 https://movie.douban.com/subject/1308554/
◎片  长 92 分钟
◎导  演 清水崇 Takashi Shimizu
◎编  剧 清水崇 Takashi Shimizu
◎主  演 酒井法子 Noriko Sakai
       葛山信吾 Shingo Katsurayama
       水木薫 Kaoru Mizuki
       堀江庆 Kei Horie
       市川由衣 Yui Ichikawa
       新山千春 Chiharu Niiyama
       斋藤步 Ayumu Sait?
       藤贵子 Takako Fuji
       山上贤治 Kenji Yamagami
       山本惠美 Emi Yamamoto
       尾关优哉 Yuya Ozeki
       Ziko Uchiyama
       松川尚瑠辉 Naruki Matsukawa
       中村靖日 Yasuhi Nakamura
       真岛秀和 Hidekazu Mashima
◎标  签 可骇 | 日本 | 惊悚 | 咒怨2 | 日本电影 | 可骇片 | 清水崇 | 咒怨
◎简  介


  女演员原濑京子(酒井法子饰)和她的未婚夫石仓将志在回家的路上发生了一路车祸。自此,将志落空了认识堕入了昏迷,京子也不幸流产。可是过未几,京子仍然感受不适,因而再去检查,居然被奉告腹中的孩子仍然一般存在!
  
  在电视台担任报道员的三浦朋香(新山千春饰),天天早晨总是在自己的公寓里听到希奇使人惧怕的声音,因而她把男友山下典孝(堀江庆饰)叫来寻觅缘由。
  
  剧组的拍摄仍然在继续,可是希奇的工作持续不断的发生,剧组职员的前后失落或是经常让大师惶惑不安……
  1. Video
  2. ID                                       : 1
  3. Format                                   : AVC
  4. Format/Info                              : Advanced Video Codec
  5. Format profile                           : [email protected]
  6. Format settings                          : CABAC / 4 Ref Frames
  7. Format settings, CABAC                   : Yes
  8. Format settings, Reference frames        : 4 frames
  9. Codec ID                                 : V_MPEG4/ISO/AVC
  10. Duration                                 : 1 h 31 min
  11. Bit rate                                 : 14.3 Mb/s
  12. Width                                    : 1 916 pixels
  13. Height                                   : 1 038 pixels
  14. Display aspect ratio                     : 1.85:1
  15. Frame rate mode                          : Constant
  16. Frame rate                               : 24.000 FPS
  17. Color space                              : YUV
  18. Chroma subsampling                       : 4:2:0
  19. Bit depth                                : 8 bits
  20. Scan type                                : Progressive
  21. Bits/(Pixel*Frame)                       : 0.299
  22. Stream size                              : 9.15 GiB (98%)
  23. Writing library                          : x264 core 161 r3027 4121277
  24. Encoding settings                        : cabac=1 / ref=4 / deblock=1:-3:-3 / analyse=0x3:0x133 / me=umh / subme=10 / psy=1 / psy_rd=1.00:0.15 / mixed_ref=1 / me_range=24 / chroma_me=1 / trellis=2 / 8x8dct=1 / cqm=0 / deadzone=21,11 / fast_pskip=1 / chroma_qp_offset=-3 / threads=18 / lookahead_threads=3 / sliced_threads=0 / nr=0 / decimate=1 / interlaced=0 / bluray_compat=0 / constrained_intra=0 / bframes=8 / b_pyramid=2 / b_adapt=2 / b_bias=0 / direct=3 / weightb=1 / open_gop=0 / weightp=2 / keyint=250 / keyint_min=24 / scenecut=40 / intra_refresh=0 / rc_lookahead=60 / rc=crf / mbtree=1 / crf=18.0 / qcomp=0.60 / qpmin=0 / qpmax=69 / qpstep=4 / ip_ratio=1.40 / aq=3:0.60
  25. Language                                 : English
  26. Default                                  : Yes
  27. Forced                                   : No

  28. Audio
  29. ID                                       : 2
  30. Format                                   : FLAC
  31. Format/Info                              : Free Lossless Audio Codec
  32. Codec ID                                 : A_FLAC
  33. Duration                                 : 1 h 31 min
  34. Bit rate mode                            : Variable
  35. Bit rate                                 : 343 kb/s
  36. Channel(s)                               : 2 channels
  37. Channel layout                           : L R
  38. Sampling rate                            : 48.0 kHz
  39. Frame rate                               : 11.719 FPS (4096 SPF)
  40. Bit depth                                : 16 bits
  41. Compression mode                         : Lossless
  42. Stream size                              : 225 MiB (2%)
  43. Writing library                          : libFLAC 1.2.1 (UTC 2007-09-17)
  44. Language                                 : Japanese
  45. Default                                  : Yes
  46. Forced                                   : No

  47. Text #1
  48. ID                                       : 3
  49. Format                                   : UTF-8
  50. Codec ID                                 : S_TEXT/UTF8
  51. Codec ID/Info                            : UTF-8 Plain Text
  52. Duration                                 : 1 h 31 min
  53. Bit rate                                 : 18 b/s
  54. Count of elements                        : 704
  55. Stream size                              : 12.6 KiB (0%)
  56. Title                                    : English
  57. Language                                 : English
  58. Default                                  : Yes
  59. Forced                                   : Yes

  60. Text #2
  61. ID                                       : 4
  62. Format                                   : PGS
  63. Muxing mode                              : zlib
  64. Codec ID                                 : S_HDMV/PGS
  65. Codec ID/Info                            : Picture based subtitle format used on BDs/HD-DVDs
  66. Duration                                 : 1 h 29 min
  67. Bit rate                                 : 2 515 b/s
  68. Count of elements                        : 1029
  69. Stream size                              : 1.61 MiB (0%)
  70. Title                                    : Danish
  71. Language                                 : Danish
  72. Default                                  : No
  73. Forced                                   : No

  74. Text #3
  75. ID                                       : 5
  76. Format                                   : PGS
  77. Muxing mode                              : zlib
  78. Codec ID                                 : S_HDMV/PGS
  79. Codec ID/Info                            : Picture based subtitle format used on BDs/HD-DVDs
  80. Duration                                 : 1 h 31 min
  81. Bit rate                                 : 2 200 b/s
  82. Count of elements                        : 937
  83. Stream size                              : 1.45 MiB (0%)
  84. Title                                    : Finnish
  85. Language                                 : Finnish
  86. Default                                  : No
  87. Forced                                   : No

  88. Text #4
  89. ID                                       : 6
  90. Format                                   : PGS
  91. Muxing mode                              : zlib
  92. Codec ID                                 : S_HDMV/PGS
  93. Codec ID/Info                            : Picture based subtitle format used on BDs/HD-DVDs
  94. Duration                                 : 1 h 29 min
  95. Bit rate                                 : 2 327 b/s
  96. Count of elements                        : 1029
  97. Stream size                              : 1.49 MiB (0%)
  98. Title                                    : Norwegian
  99. Language                                 : Norwegian
  100. Default                                  : No
  101. Forced                                   : No

  102. Text #5
  103. ID                                       : 7
  104. Format                                   : PGS
  105. Muxing mode                              : zlib
  106. Codec ID                                 : S_HDMV/PGS
  107. Codec ID/Info                            : Picture based subtitle format used on BDs/HD-DVDs
  108. Duration                                 : 1 h 29 min
  109. Bit rate                                 : 2 486 b/s
  110. Count of elements                        : 1011
  111. Stream size                              : 1.59 MiB (0%)
  112. Title                                    : Swedish
  113. Language                                 : Swedish
  114. Default                                  : No
  115. Forced                                   : No

  116. Menu
  117. 00:00:00.000                             : en:00:00:00.000
  118. 00:10:49.500                             : en:00:10:49.500
  119. 00:20:45.500                             : en:00:20:45.500
  120. 00:32:05.500                             : en:00:32:05.500
  121. 00:41:03.000                             : en:00:41:03.000
  122. 00:51:15.500                             : en:00:51:15.500
  123. 01:03:40.000                             : en:01:03:40.000
  124. 01:16:05.500                             : en:01:16:05.500
复制代码




                                       
                                       

                                       
                                       
                                       




回复

使用道具 举报

懒得打字嘛,点击右侧快捷回复 【右侧内容,后台自定义】
您需要登录后才可以回帖 登录 | 立即加入

本版积分规则

Archiver|小黑屋| 蓝光电影网 |网站地图

Copyright © 2021 Comsenz Inc. Powered by 蓝光电影网

蓝光电影网

本站内容由用户自主分享和转载自互联网,转载目的在于传递更多信息,并不代表本网赞同其观点和对其真实性负责。

如有侵权、违反国家法律政策行为,请联系我们,我们会第一时间及时清除和处理!

举报反馈邮箱:[email protected]

快速回复 返回顶部 返回列表