找回密码

蓝光电影网

查看: 35|回复: 0

[爱情] 惊涛飓浪/我愿意 Adrift.2018.1080p.BluRay.x264.DTS-HD.MA.7.1-FGT 9.74GB

[复制链接]
蓝光币
426
发表于 2020-9-27 09:45:43 | 显示全部楼层 |阅读模式


◎译  名 惊涛飓浪/我愿意(台)/飘流/飘流心海(港)
◎片  名 Adrift
◎年  代 2018
◎产  地 美国
◎类  别 恋爱 / 灾难
◎语  言 英语
◎上映日期 2018-06-01(美国) / 2018-12-07(中国大陆)
◎IMDb评分  6.6/10 from 44845 users
◎IMDb链接  https://www.imdb.com/title/tt6306064/
◎豆瓣评分 6.8/10 from 13493 users
◎豆瓣链接 https://movie.douban.com/subject/26937563/
◎片  长 96分钟
◎导  演 巴塔萨·科马库 Baltasar Kormákur
◎编  剧 亚伦·坎德尔 Aaron Kandell / 乔丹·坎德尔 Jordan Kandell / 大卫·布兰森·史姑娘 David Branson Smith / 塔米·阿什克拉夫特 Tami Ashcraft
◎主  演 山姆·克拉弗林 Sam Claflin
       谢琳·伍德蕾 Shailene Woodley
       杰弗瑞·托马斯 Jeffrey Thomas
       伊丽莎白·霍桑 Elizabeth Hawthorne
       格蕾丝·帕尔默 Grace Palmer
       塔米·阿什克拉夫特 Tami Ashcraft
       凯尔·达米拉米安 Kael Damlamian
       露娜·坎贝尔 Luna Campbell
       扎克·贝雷斯福德 Zac Beresford
       锡亚莱·吐诺卡 Siale Tunoka
◎标  签 灾难 | 恋爱 | 实在事务改编 | 美国 | 冒险 | 2018 | 剧情 | 航海
◎简  介


  影片报告了富有摸索精神的塔米·奥尔德姆(谢琳·伍德蕾 饰)与未婚夫理查德·夏普(山姆·克拉弗林 饰)为完成胡想中冒险刺激的航海之旅,二人驾驶着帆艇从碧海蓝天的大溪地起航横渡承平洋。天成心外风云,不意二人在飞行途中遭受了强度全球排名前十的名为“雷蒙德”的四级飓风忽然攻击。在风暴事后,依托于浮木上的塔米醒来发现帆艇已经被摧毁的破败不胜,更不幸的是她挚爱的汉子理查德因身受重伤而岌岌可危,塔米盘桓于希望与失望左右,尔后在理查德激励之下,她果断地燃起了求生的希望,并爆发了绝境之下的意志力和勇气,在一望无边的大海中挣扎保存……
  1. Video
  2. ID                                       : 1
  3. Format                                   : AVC
  4. Format/Info                              : Advanced Video Codec
  5. Format profile                           : [email protected]
  6. Format settings                          : CABAC / 5 Ref Frames
  7. Format settings, CABAC                   : Yes
  8. Format settings, ReFrames                : 5 frames
  9. Codec ID                                 : V_MPEG4/ISO/AVC
  10. Duration                                 : 1 h 36 min
  11. Bit rate                                 : 9 807 kb/s
  12. Width                                    : 1 920 pixels
  13. Height                                   : 808 pixels
  14. Display aspect ratio                     : 2.40:1
  15. Frame rate mode                          : Constant
  16. Frame rate                               : 23.976 (24000/1001/189150) FPS
  17. Color space                              : YUV
  18. Chroma subsampling                       : 4:2:0
  19. Bit depth                                : 8 bits
  20. Scan type                                : Progressive
  21. Bits/(Pixel*Frame)                       : 0.264
  22. Stream size                              : 6.63 GiB (68%)
  23. Title                                    : Adrift.2018.1080p.BluRay.x264.DTS-HD.MA.7.1-FGT
  24. Writing library                          : x264 core 157 r2932 303c484
  25. Encoding settings                        : cabac=1 / ref=5 / deblock=1:-3:-3 / analyse=0x3:0x113 / me=umh / subme=8 / psy=1 / psy_rd=1.00:0.00 / mixed_ref=1 / me_range=16 / chroma_me=1 / trellis=1 / 8x8dct=1 / cqm=0 / deadzone=21,11 / fast_pskip=1 / chroma_qp_offset=-2 / threads=24 / lookahead_threads=4 / sliced_threads=0 / nr=0 / decimate=1 / interlaced=0 / bluray_compat=0 / constrained_intra=0 / bframes=3 / b_pyramid=2 / b_adapt=1 / b_bias=0 / direct=3 / weightb=1 / open_gop=0 / weightp=2 / keyint=250 / keyint_min=23 / scenecut=40 / intra_refresh=0 / rc_lookahead=50 / rc=2pass / mbtree=1 / bitrate=9807 / ratetol=1.0 / qcomp=0.60 / qpmin=0 / qpmax=69 / qpstep=4 / cplxblur=20.0 / qblur=0.5 / ip_ratio=1.40 / aq=1:1.00
  26. Language                                 : English
  27. Default                                  : Yes
  28. Forced                                   : No
  29. Audio
  30. ID                                       : 2
  31. Format                                   : DTS
  32. Format/Info                              : Digital Theater Systems
  33. Format profile                           : MA / Core
  34. Codec ID                                 : A_DTS
  35. Duration                                 : 1 h 36 min
  36. Bit rate mode                            : Variable / Constant
  37. Bit rate                                 : 4 565 kb/s / 1 509 kb/s
  38. Channel(s)                               : 8 channels / 6 channels
  39. Channel positions                        : Front: L C R, Side: L R, Back: L R, LFE / Front: L C R, Side: L R, LFE
  40. Sampling rate                            : 48.0 kHz
  41. Frame rate                               : 93.750 FPS (512 SPF)
  42. Bit depth                                : 24 bits
  43. Compression mode                         : Lossless / Lossy
  44. Stream size                              : 3.09 GiB (32%)
  45. Title                                    : Adrift.2018.1080p.BluRay.x264.DTS-HD.MA.7.1-FGT
  46. Language                                 : English
  47. Default                                  : Yes
  48. Forced                                   : No
  49. Text #1
  50. ID                                       : 3
  51. Format                                   : UTF-8
  52. Codec ID                                 : S_TEXT/UTF8
  53. Codec ID/Info                            : UTF-8 Plain Text
  54. Duration                                 : 1 h 24 min
  55. Bit rate                                 : 35 b/s
  56. Count of elements                        : 912
  57. Stream size                              : 22.3 KiB (0%)
  58. Title                                    : English-SRT
  59. Language                                 : English
  60. Default                                  : Yes
  61. Forced                                   : No
  62. Text #2
  63. ID                                       : 4
  64. Format                                   : PGS
  65. Muxing mode                              : zlib
  66. Codec ID                                 : S_HDMV/PGS
  67. Codec ID/Info                            : Picture based subtitle format used on BDs/HD-DVDs
  68. Duration                                 : 1 h 28 min
  69. Bit rate                                 : 31.1 kb/s
  70. Count of elements                        : 1990
  71. Stream size                              : 19.6 MiB (0%)
  72. Title                                    : English-PGS
  73. Language                                 : English
  74. Default                                  : No
  75. Forced                                   : No
  76. Text #3
  77. ID                                       : 5
  78. Format                                   : PGS
  79. Muxing mode                              : zlib
  80. Codec ID                                 : S_HDMV/PGS
  81. Codec ID/Info                            : Picture based subtitle format used on BDs/HD-DVDs
  82. Duration                                 : 1 h 34 min
  83. Bit rate                                 : 21.8 kb/s
  84. Count of elements                        : 1688
  85. Stream size                              : 14.7 MiB (0%)
  86. Title                                    : Spanish-PGS
  87. Language                                 : Spanish
  88. Default                                  : No
  89. Forced                                   : No
  90. Menu
  91. 00:00:00.000                             : en:Chapter 01
  92. 00:05:18.943                             : en:Chapter 02
  93. 00:08:04.400                             : en:Chapter 03
  94. 00:14:01.257                             : en:Chapter 04
  95. 00:19:38.010                             : en:Chapter 05
  96. 00:24:46.568                             : en:Chapter 06
  97. 00:29:42.572                             : en:Chapter 07
  98. 00:34:45.708                             : en:Chapter 08
  99. 00:37:20.947                             : en:Chapter 09
  100. 00:43:30.024                             : en:Chapter 10
  101. 00:49:43.563                             : en:Chapter 11
  102. 00:52:40.532                             : en:Chapter 12
  103. 00:58:12.447                             : en:Chapter 13
  104. 01:06:31.070                             : en:Chapter 14
  105. 01:11:19.650                             : en:Chapter 15
  106. 01:14:07.151                             : en:Chapter 16
  107. 01:18:06.973                             : en:Chapter 17
  108. 01:24:15.550                             : en:Chapter 18
  109. 01:27:22.445                             : en:Chapter 19
  110. 01:31:34.947                             : en:Chapter 20
复制代码





                                       
                                       

                                       
                                       
                                       




回复

使用道具 举报

懒得打字嘛,点击右侧快捷回复 【右侧内容,后台自定义】
您需要登录后才可以回帖 登录 | 立即加入

本版积分规则

Archiver|小黑屋| 蓝光电影网 |网站地图

Copyright © 2021 Comsenz Inc. Powered by 蓝光电影网

蓝光电影网

本站内容由用户自主分享和转载自互联网,转载目的在于传递更多信息,并不代表本网赞同其观点和对其真实性负责。

如有侵权、违反国家法律政策行为,请联系我们,我们会第一时间及时清除和处理!

举报反馈邮箱:[email protected]

快速回复 返回顶部 返回列表