找回密码

蓝光电影网

查看: 17|回复: 0

[动作] 绝不让步/塔法恩 Taffin.1988.1080p.BluRay.x264.FLAC.2.0-GeneMige 8.53GB

[复制链接]
蓝光币
386
发表于 2021-5-16 08:49:59 | 显示全部楼层 |阅读模式
[img][/img]

◎译  名 绝不妥协/塔法恩/塔芬
◎片  名 Taffin
◎年  代 1988
◎产  地 英国,爱尔兰
◎类  别 行动 / 惊悚
◎语  言 爱尔兰盖尔语,英语
◎上映日期 1988-02-26
◎豆瓣评分 /10 from 0 users
◎豆瓣链接 https://movie.douban.com/subject/1294313/
◎片  长 96 分钟
◎导  演 佛朗西斯·梅吉 Francis Megahy
◎编  剧 大卫·安布罗斯 David Ambrose
◎主  演 杰拉德·迈克索利 Gerard McSorley
       迪尔巴拉·莫洛伊 Dearbhla Molloy
◎标  签 Pierce_Brosnan | 被轻忽的电影 | 英国 | 1988 | 英语发音,中笔墨幕 | 英国电影 | 女性 | 行动
◎简  介


  塔芬在小镇诞发展大,以替人索债收取佣金生活。只如果经塔芬的手,没有要不返来的债,这让塔芬在小镇居民的心中具有极高的职位。
  
  一个由政府官员和贩子合作的工场项目看中了小镇优越的地理位置,决议在这里办厂,但需要撤除小镇中唯一的活动场。在居民的呼吁下,塔芬出头迫使投资人改变了初衷。活动场保住了,但面临工场行将为小镇带来的净化,小镇居民再次派代表找到塔芬,希望他可以脱手互助。
  
  塔芬找到了投资人之一的马丁,但马丁拒绝了塔芬的要求。塔芬在工场开工前给了马丁和一切投资人一个下马威,但他的行为却招致投资人中实在的幕后策划者-斯布罗利手下的一顿群殴,几乎送死。
  
  塔芬原本不筹算再管建厂的这件工作,但单靠居民们自己的气力是绝对不成能改变建厂的现实的。塔芬心里很冲突,他的一些想法和居民出现了分歧。居民们提出依照惯有的方式付给塔芬报答,条件是把建造工场的人赶出小镇,塔芬接管了。
  
  小镇居民对建厂的激烈抵牾和塔芬的干与给建厂带来了障碍。塔芬用计迫使马丁答应撤出投入的资金,这让斯布罗利视塔芬为眼中钉肉中刺。斯布罗利雇佣杀手纵火,烧毁了马丁的屋子,马丁本人和家属也在大火中丧生。斯布罗利把这件事移祸于塔芬身上,居民起头猜疑、冷淡塔芬,全部小镇覆盖在一片疑云中。
  
  但这样的成果并不能让斯布罗利满足,他在烧毁马丁屋子后未几雇佣杀手伺机对塔芬动手。这一切被警悟的塔芬发觉,他凭仗灵敏的身手躲过了追杀,并让工作水落石出。
  
  修建工地的工人退出了小镇,在居民们为此喝彩之时,塔芬则踏上了异乡的旅途,他晓得自己的代价不但仅在于替人追债,他要寻觅新的自我。
  1. Video
  2. ID                                       : 1
  3. Format                                   : AVC
  4. Format/Info                              : Advanced Video Codec
  5. Format profile                           : [email protected]
  6. Format settings                          : CABAC / 4 Ref Frames
  7. Format settings, CABAC                   : Yes
  8. Format settings, Reference frames        : 4 frames
  9. Codec ID                                 : V_MPEG4/ISO/AVC
  10. Duration                                 : 1 h 36 min
  11. Bit rate                                 : 12.5 Mb/s
  12. Width                                    : 1 920 pixels
  13. Height                                   : 1 038 pixels
  14. Display aspect ratio                     : 1.85:1
  15. Frame rate mode                          : Constant
  16. Frame rate                               : 23.976 (24000/1001/189150) FPS
  17. Color space                              : YUV
  18. Chroma subsampling                       : 4:2:0
  19. Bit depth                                : 8 bits
  20. Scan type                                : Progressive
  21. Bits/(Pixel*Frame)                       : 0.262
  22. Stream size                              : 8.31 GiB (97%)
  23. Writing library                          : x264 core 157 r2935 545de2f
  24. Encoding settings                        : cabac=1 / ref=3 / deblock=1:0:0 / analyse=0x1:0x111 / me=hex / subme=7 / psy=1 / psy_rd=1.00:0.00 / mixed_ref=1 / me_range=16 / chroma_me=1 / trellis=1 / 8x8dct=0 / cqm=0 / deadzone=21,11 / fast_pskip=1 / chroma_qp_offset=-2 / threads=12 / lookahead_threads=2 / sliced_threads=0 / nr=0 / decimate=1 / interlaced=0 / bluray_compat=0 / constrained_intra=0 / bframes=3 / b_pyramid=2 / b_adapt=1 / b_bias=0 / direct=1 / weightb=1 / open_gop=0 / weightp=2 / keyint=240 / keyint_min=24 / scenecut=40 / intra_refresh=0 / rc_lookahead=40 / rc=abr / mbtree=1 / bitrate=12500 / ratetol=1.0 / qcomp=0.60 / qpmin=0 / qpmax=69 / qpstep=4 / ip_ratio=1.40 / aq=1:1.00
  25. Default                                  : Yes
  26. Forced                                   : No
  27. Color range                              : Limited
  28. Color primaries                          : BT.709
  29. Transfer characteristics                 : BT.709
  30. Matrix coefficients                      : BT.709
  31. Audio
  32. ID                                       : 2
  33. Format                                   : FLAC
  34. Format/Info                              : Free Lossless Audio Codec
  35. Codec ID                                 : A_FLAC
  36. Duration                                 : 1 h 36 min
  37. Bit rate mode                            : Variable
  38. Bit rate                                 : 331 kb/s
  39. Channel(s)                               : 2 channels
  40. Channel layout                           : L R
  41. Sampling rate                            : 48.0 kHz
  42. Frame rate                               : 11.719 FPS (4096 SPF)
  43. Bit depth                                : 16 bits
  44. Compression mode                         : Lossless
  45. Delay relative to video                  : 11 s 10 ms
  46. Stream size                              : 227 MiB (3%)
  47. Title                                    : FLAC Audio / 2.0 / 48 kHz / 331 kbps / 16-bit
  48. Language                                 : English
  49. Default                                  : Yes
  50. Forced                                   : No
  51. Text
  52. ID                                       : 3
  53. Format                                   : UTF-8
  54. Codec ID                                 : S_TEXT/UTF8
  55. Codec ID/Info                            : UTF-8 Plain Text
  56. Duration                                 : 1 h 32 min
  57. Bit rate                                 : 52 b/s
  58. Count of elements                        : 1159
  59. Stream size                              : 35.9 KiB (0%)
  60. Language                                 : English
  61. Default                                  : Yes
  62. Forced                                   : No
复制代码




                                       
                                       

                                       
                                       
                                       




回复

使用道具 举报

懒得打字嘛,点击右侧快捷回复 【右侧内容,后台自定义】
您需要登录后才可以回帖 登录 | 立即加入

本版积分规则

Archiver|小黑屋| 蓝光电影网 |网站地图

Copyright © 2021 Comsenz Inc. Powered by 蓝光电影网

蓝光电影网

本站内容由用户自主分享和转载自互联网,转载目的在于传递更多信息,并不代表本网赞同其观点和对其真实性负责。

如有侵权、违反国家法律政策行为,请联系我们,我们会第一时间及时清除和处理!

举报反馈邮箱:[email protected]

快速回复 返回顶部 返回列表