找回密码

蓝光电影网

查看: 65|回复: 0

[惊悚] 活着/为了活着 Alive.2018.720p.BluRay.x264-GETiT 1.82GB

[复制链接]
蓝光币
519
发表于 2021-6-26 08:55:56 | 显示全部楼层 |阅读模式


◎译  名 在世/为了在世
◎片  名 Alive
◎年  代 2019
◎产  地 加拿大
◎类  别 惊悚 / 可骇
◎语  言 英语
◎上映日期 2019-03-30(加拿大)
◎豆瓣评分 /10 from 0 users
◎豆瓣链接 https://movie.douban.com/subject/30257478/
◎片  长 91分钟
◎导  演 罗伯·格兰特 Rob Grant
◎编  剧 Jules Vincent Jules Vincent
◎主  演 托马斯·康奎尔 Thomas Cocquerel
       安古斯·麦克菲登 Angus Macfadyen
       Chantal Perron Chantal Perron
       格里克·温斯顿 Gerrick Winston
◎标  签 惊悚 | 血腥 | 可骇 | 可骇惊悚悬疑重口血腥 | 3M稀影基地 | [歐美] | B
◎简  介


  A severely injured man and woman awake in an abandoned sanitarium only to discover that a sadistic caretaker holds the keys to their freedom and the horrific answers as to their real identity.
  1. Video
  2. ID                                       : 1
  3. Format                                   : AVC
  4. Format/Info                              : Advanced Video Codec
  5. Format profile                           : [email protected]
  6. Format settings                          : CABAC / 8 Ref Frames
  7. Format settings, CABAC                   : Yes
  8. Format settings, Reference frames        : 8 frames
  9. Codec ID                                 : V_MPEG4/ISO/AVC
  10. Duration                                 : 1 h 31 min
  11. Bit rate                                 : 2 207 kb/s
  12. Width                                    : 1 280 pixels
  13. Height                                   : 536 pixels
  14. Display aspect ratio                     : 2.40:1
  15. Frame rate mode                          : Constant
  16. Frame rate                               : 24.000 FPS
  17. Color space                              : YUV
  18. Chroma subsampling                       : 4:2:0
  19. Bit depth                                : 8 bits
  20. Scan type                                : Progressive
  21. Bits/(Pixel*Frame)                       : 0.134
  22. Stream size                              : 1.41 GiB (77%)
  23. Writing library                          : x264 core 163 r3059 b684ebe
  24. Encoding settings                        : cabac=1 / ref=8 / deblock=1:-3:-3 / analyse=0x3:0x133 / me=umh / subme=9 / psy=1 / psy_rd=1.00:0.00 / mixed_ref=1 / me_range=16 / chroma_me=1 / trellis=2 / 8x8dct=1 / cqm=0 / deadzone=21,11 / fast_pskip=1 / chroma_qp_offset=-2 / threads=17 / lookahead_threads=1 / sliced_threads=0 / nr=0 / decimate=1 / interlaced=0 / bluray_compat=0 / constrained_intra=0 / bframes=3 / b_pyramid=2 / b_adapt=2 / b_bias=0 / direct=3 / weightb=1 / open_gop=0 / weightp=2 / keyint=250 / keyint_min=24 / scenecut=40 / intra_refresh=0 / rc_lookahead=60 / rc=crf / mbtree=1 / crf=17.0 / qcomp=0.60 / qpmin=0 / qpmax=69 / qpstep=4 / ip_ratio=1.40 / aq=3:0.80
  25. Language                                 : English
  26. Default                                  : Yes
  27. Forced                                   : No
  28. Color range                              : Limited
  29. Matrix coefficients                      : BT.709

  30. Audio
  31. ID                                       : 2
  32. Format                                   : AC-3
  33. Format/Info                              : Audio Coding 3
  34. Commercial name                          : Dolby Digital
  35. Codec ID                                 : A_AC3
  36. Duration                                 : 1 h 31 min
  37. Bit rate mode                            : Constant
  38. Bit rate                                 : 640 kb/s
  39. Channel(s)                               : 6 channels
  40. Channel layout                           : L R C LFE Ls Rs
  41. Sampling rate                            : 48.0 kHz
  42. Frame rate                               : 31.250 FPS (1536 SPF)
  43. Compression mode                         : Lossy
  44. Stream size                              : 418 MiB (22%)
  45. Title                                    : ac3
  46. Language                                 : English
  47. Service kind                             : Complete Main
  48. Default                                  : Yes
  49. Forced                                   : No

  50. Text
  51. ID                                       : 3
  52. Format                                   : PGS
  53. Muxing mode                              : zlib
  54. Codec ID                                 : S_HDMV/PGS
  55. Codec ID/Info                            : Picture based subtitle format used on BDs/HD-DVDs
  56. Duration                                 : 1 h 30 min
  57. Bit rate                                 : 6 153 b/s
  58. Count of elements                        : 1190
  59. Stream size                              : 3.99 MiB (0%)
  60. Title                                    : sub
  61. Language                                 : German
  62. Default                                  : No
  63. Forced                                   : No

  64. Menu
  65. 00:00:00.000                             : en:00:00:00.000
  66. 00:06:02.167                             : en:00:06:02.167
  67. 00:15:27.042                             : en:00:15:27.042
  68. 00:24:27.125                             : en:00:24:27.125
  69. 00:35:46.417                             : en:00:35:46.417
  70. 00:42:48.792                             : en:00:42:48.792
  71. 00:50:23.333                             : en:00:50:23.333
  72. 00:55:46.667                             : en:00:55:46.667
  73. 01:04:31.875                             : en:01:04:31.875
  74. 01:10:21.417                             : en:01:10:21.417
  75. 01:20:11.125                             : en:01:20:11.125
  76. 01:26:26.375                             : en:01:26:26.375
复制代码





                                       
                                       

                                       
                                       
                                       




回复

使用道具 举报

懒得打字嘛,点击右侧快捷回复 【右侧内容,后台自定义】
您需要登录后才可以回帖 登录 | 立即加入

本版积分规则

Archiver|小黑屋| 蓝光电影网 |网站地图

Copyright © 2021 Comsenz Inc. Powered by 蓝光电影网

蓝光电影网

本站内容由用户自主分享和转载自互联网,转载目的在于传递更多信息,并不代表本网赞同其观点和对其真实性负责。

如有侵权、违反国家法律政策行为,请联系我们,我们会第一时间及时清除和处理!

举报反馈邮箱:[email protected]

快速回复 返回顶部 返回列表