找回密码

蓝光电影网

查看: 14|回复: 0

[动作] 黃飛鴻少林拳 The.Skyhawk.1974.CHINESE.1080p.BluRay.x264.FLAC2.0-NY 7.37GB

[复制链接]
蓝光币
386
发表于 2021-5-16 08:39:08 | 显示全部楼层 |阅读模式
[img][/img]

◎译  名 黄飞鸿少林拳/The Skyhawk
◎片  名 黃飛鴻少林拳
◎年  代 1974
◎产  地 中国香港
◎类  别 行动
◎语  言 粤语
◎上映日期 1974-01-22(中国香港)
◎豆瓣评分 6.2/10 from 347 users
◎豆瓣链接 https://movie.douban.com/subject/1307361/
◎片  长 84分钟
◎导  演 郑昌和 Chang-hwa Jeong
◎编  剧 叶逸芳 I. Fang Yeh
◎主  演 关德兴 Tak-Hing Kwan
       洪金宝 Sammo Hung Kam-Bo
       苗可秀 Nora Miao
       黄家达 Carter Wong
       金琪珠 Chi Chu Chin
       林正英 Ching-Ying Lam
       李昆 Kun Li
       赵雄 Chiao Hsiung
◎标  签 香港 | 行动 | 洪金宝 | 香港电影 | 关德兴 | 1974 | 郑昌和 | 苗可秀
◎简  介


  恶霸顾宗武,诡计把持码头搬运买卖,挑唆手下向朱贵部属工人拆台,朱贵调解后返家,邀黄飞鸿师徒到肥肥姐姐玉英之酒楼设宴为黄飞鸿接风,黄飞鸿并收小狮子为徒。一日,顾手下因追捕一位逃走少女,与郝镖等众爪牙包围黄飞鸿,拟将众人灭口,飞鸿与小狮子与对方斗智,以特技将顾等人消灭。
  1. Video
  2. ID                                       : 1
  3. Format                                   : AVC
  4. Format/Info                              : Advanced Video Codec
  5. Format profile                           : [email protected]
  6. Format settings                          : CABAC / 5 Ref Frames
  7. Format settings, CABAC                   : Yes
  8. Format settings, Reference frames        : 5 frames
  9. Codec ID                                 : V_MPEG4/ISO/AVC
  10. Duration                                 : 1 h 26 min
  11. Bit rate                                 : 11.9 Mb/s
  12. Width                                    : 1 920 pixels
  13. Height                                   : 816 pixels
  14. Display aspect ratio                     : 2.35:1
  15. Frame rate mode                          : Constant
  16. Frame rate                               : 24.000 FPS
  17. Color space                              : YUV
  18. Chroma subsampling                       : 4:2:0
  19. Bit depth                                : 8 bits
  20. Scan type                                : Progressive
  21. Bits/(Pixel*Frame)                       : 0.317
  22. Stream size                              : 7.20 GiB (98%)
  23. Writing library                          : x264 core 157 r2935 545de2f
  24. Encoding settings                        : cabac=1 / ref=5 / deblock=1:-3:-3 / analyse=0x3:0x133 / me=umh / subme=10 / psy=1 / psy_rd=1.00:0.00 / mixed_ref=1 / me_range=32 / chroma_me=1 / trellis=2 / 8x8dct=1 / cqm=0 / deadzone=21,11 / fast_pskip=0 / chroma_qp_offset=-2 / threads=25 / lookahead_threads=6 / sliced_threads=0 / nr=0 / decimate=0 / interlaced=0 / bluray_compat=0 / constrained_intra=0 / bframes=16 / b_pyramid=2 / b_adapt=2 / b_bias=0 / direct=3 / weightb=1 / open_gop=0 / weightp=2 / keyint=240 / keyint_min=24 / scenecut=40 / intra_refresh=0 / rc_lookahead=60 / rc=crf / mbtree=0 / crf=20.0 / qcomp=0.60 / qpmin=0 / qpmax=69 / qpstep=4 / vbv_maxrate=62500 / vbv_bufsize=78125 / crf_max=0.0 / nal_hrd=none / filler=0 / ip_ratio=1.40 / pb_ratio=1.30 / aq=2:1.00
  25. Language                                 : Chinese
  26. Default                                  : Yes
  27. Forced                                   : No
  28. Color range                              : Limited
  29. Color primaries                          : BT.709
  30. Transfer characteristics                 : BT.709
  31. Matrix coefficients                      : BT.709
  32. Audio
  33. ID                                       : 2
  34. Format                                   : FLAC
  35. Format/Info                              : Free Lossless Audio Codec
  36. Codec ID                                 : A_FLAC
  37. Duration                                 : 1 h 26 min
  38. Bit rate mode                            : Variable
  39. Bit rate                                 : 276 kb/s
  40. Channel(s)                               : 2 channels
  41. Channel layout                           : L R
  42. Sampling rate                            : 48.0 kHz
  43. Frame rate                               : 11.719 FPS (4096 SPF)
  44. Bit depth                                : 16 bits
  45. Compression mode                         : Lossless
  46. Stream size                              : 171 MiB (2%)
  47. Writing library                          : libFLAC 1.2.1 (UTC 2007-09-17)
  48. Language                                 : Chinese
  49. Default                                  : Yes
  50. Forced                                   : No
  51. Text #1
  52. ID                                       : 3
  53. Format                                   : UTF-8
  54. Codec ID                                 : S_TEXT/UTF8
  55. Codec ID/Info                            : UTF-8 Plain Text
  56. Duration                                 : 1 h 24 min
  57. Bit rate                                 : 19 b/s
  58. Count of elements                        : 529
  59. Stream size                              : 12.2 KiB (0%)
  60. Title                                    : SRT
  61. Language                                 : English
  62. Default                                  : Yes
  63. Forced                                   : No
  64. Text #2
  65. ID                                       : 4
  66. Format                                   : PGS
  67. Muxing mode                              : zlib
  68. Codec ID                                 : S_HDMV/PGS
  69. Codec ID/Info                            : Picture based subtitle format used on BDs/HD-DVDs
  70. Duration                                 : 1 h 24 min
  71. Bit rate                                 : 16.1 kb/s
  72. Count of elements                        : 942
  73. Stream size                              : 9.71 MiB (0%)
  74. Language                                 : English
  75. Default                                  : No
  76. Forced                                   : No
  77. Menu
  78. 00:00:00.000                             : :Chapter 01
  79. 00:08:49.458                             : :Chapter 02
  80. 00:16:34.000                             : :Chapter 03
  81. 00:21:32.708                             : :Chapter 04
  82. 00:30:47.167                             : :Chapter 05
  83. 00:37:46.125                             : :Chapter 06
  84. 00:43:18.875                             : :Chapter 07
  85. 00:50:29.000                             : :Chapter 08
  86. 00:59:31.625                             : :Chapter 09
  87. 01:05:20.500                             : :Chapter 10
  88. 01:11:57.917                             : :Chapter 11
  89. 01:19:53.167                             : :Chapter 12
复制代码




                                       
                                       

                                       
                                       
                                       




回复

使用道具 举报

懒得打字嘛,点击右侧快捷回复 【右侧内容,后台自定义】
您需要登录后才可以回帖 登录 | 立即加入

本版积分规则

Archiver|小黑屋| 蓝光电影网 |网站地图

Copyright © 2021 Comsenz Inc. Powered by 蓝光电影网

蓝光电影网

本站内容由用户自主分享和转载自互联网,转载目的在于传递更多信息,并不代表本网赞同其观点和对其真实性负责。

如有侵权、违反国家法律政策行为,请联系我们,我们会第一时间及时清除和处理!

举报反馈邮箱:[email protected]

快速回复 返回顶部 返回列表