找回密码

蓝光电影网

查看: 8|回复: 0

[动作] 机车狼人 Werewolves.On.Wheels.1971.1080p.BluRay.x264.FLAC.2.0-HANDJOB 5.32GB

[复制链接]
蓝光币
386
发表于 2021-5-16 08:34:01 | 显示全部楼层 |阅读模式
[img][/img]

◎译  名 机车狼人
◎片  名 Werewolves On Wheels
◎年  代 1971
◎产  地 美国
◎类  别 行动 / 可骇
◎语  言 英语
◎上映日期 1974-06-21
◎豆瓣评分 /10 from 0 users
◎豆瓣链接 https://movie.douban.com/subject/2348125/
◎片  长 85 分钟
◎导  演 Michel Levesque
◎编  剧 Michel Levesque
◎主  演 比利·格雷 Billy Gray
       Steve Oliver
       Barry McGuire
       Jay W. Jensen
       赛文·达尔登 Severn Darden
       卡尔·李 Carl Lee
◎标  签 可骇 | 行动 | 美国电影 | 美国 | 狼人 | 犯罪 | 惊悚 | 剧情
◎简  介


  暂无相关剧情先容
  1. Video
  2. ID                                       : 1
  3. Format                                   : AVC
  4. Format/Info                              : Advanced Video Codec
  5. Format profile                           : [email protected]
  6. Format settings                          : CABAC / 4 Ref Frames
  7. Format settings, CABAC                   : Yes
  8. Format settings, Reference frames        : 4 frames
  9. Codec ID                                 : V_MPEG4/ISO/AVC
  10. Duration                                 : 1 h 19 min
  11. Bit rate                                 : 9 034 kb/s
  12. Width                                    : 1 916 pixels
  13. Height                                   : 1 080 pixels
  14. Display aspect ratio                     : 16:9
  15. Frame rate mode                          : Constant
  16. Frame rate                               : 23.976 (24000/1001/189150) FPS
  17. Color space                              : YUV
  18. Chroma subsampling                       : 4:2:0
  19. Bit depth                                : 8 bits
  20. Scan type                                : Progressive
  21. Bits/(Pixel*Frame)                       : 0.182
  22. Stream size                              : 5.04 GiB (95%)
  23. Writing library                          : x264 core 157 r2935 545de2f
  24. Encoding settings                        : cabac=1 / ref=4 / deblock=1:-3:-3 / analyse=0x3:0x133 / me=umh / subme=10 / psy=1 / psy_rd=1.00:0.00 / mixed_ref=1 / me_range=32 / chroma_me=1 / trellis=2 / 8x8dct=1 / cqm=0 / deadzone=21,11 / fast_pskip=0 / chroma_qp_offset=-2 / threads=18 / lookahead_threads=4 / sliced_threads=0 / nr=0 / decimate=0 / interlaced=0 / bluray_compat=0 / constrained_intra=0 / bframes=16 / b_pyramid=2 / b_adapt=2 / b_bias=0 / direct=3 / weightb=1 / open_gop=0 / weightp=1 / keyint=240 / keyint_min=24 / scenecut=40 / intra_refresh=0 / rc_lookahead=60 / rc=crf / mbtree=0 / crf=20.5 / qcomp=0.60 / qpmin=0 / qpmax=69 / qpstep=4 / vbv_maxrate=62500 / vbv_bufsize=78125 / crf_max=0.0 / nal_hrd=none / filler=0 / ip_ratio=1.40 / pb_ratio=1.30 / aq=2:1.00
  25. Default                                  : Yes
  26. Forced                                   : No
  27. Color range                              : Limited
  28. Color primaries                          : BT.709
  29. Transfer characteristics                 : BT.709
  30. Matrix coefficients                      : BT.709
  31. Audio #1
  32. ID                                       : 2
  33. Format                                   : FLAC
  34. Format/Info                              : Free Lossless Audio Codec
  35. Codec ID                                 : A_FLAC
  36. Duration                                 : 1 h 19 min
  37. Bit rate mode                            : Variable
  38. Bit rate                                 : 431 kb/s
  39. Channel(s)                               : 2 channels
  40. Sampling rate                            : 48.0 kHz
  41. Frame rate                               : 11.719 FPS (4096 SPF)
  42. Bit depth                                : 16 bits
  43. Compression mode                         : Lossless
  44. Stream size                              : 246 MiB (5%)
  45. Writing library                          : libFLAC 1.2.1 (UTC 2007-09-17)
  46. Language                                 : English
  47. Default                                  : Yes
  48. Forced                                   : No
  49. Audio #2
  50. ID                                       : 3
  51. Format                                   : AAC LC SBR
  52. Format/Info                              : Advanced Audio Codec Low Complexity with Spectral Band Replication
  53. Commercial name                          : HE-AAC
  54. Format settings                          : Explicit
  55. Codec ID                                 : A_AAC-2
  56. Duration                                 : 1 h 19 min
  57. Bit rate                                 : 80.0 kb/s
  58. Channel(s)                               : 2 channels
  59. Channel layout                           : L R
  60. Sampling rate                            : 48.0 kHz
  61. Frame rate                               : 23.438 FPS (2048 SPF)
  62. Compression mode                         : Lossy
  63. Delay relative to video                  : 31 ms
  64. Stream size                              : 45.7 MiB (1%)
  65. Title                                    : commentary with Michel Levesque (Director/Writer) and David M. Kaufman (Writer)
  66. Language                                 : English
  67. Default                                  : No
  68. Forced                                   : No
  69. Menu
  70. 00:00:00.000                             : :Chapter 1
  71. 00:03:21.243                             : :Chapter 2
  72. 00:11:09.127                             : :Chapter 3
  73. 00:19:01.849                             : :Chapter 4
  74. 00:24:49.113                             : :Chapter 5
  75. 00:32:12.431                             : :Chapter 6
  76. 00:38:24.219                             : :Chapter 7
  77. 00:46:11.227                             : :Chapter 8
  78. 00:51:35.467                             : :Chapter 9
  79. 00:59:02.664                             : :Chapter 10
  80. 01:10:00.613                             : :Chapter 11
  81. 01:19:09.620                             : :Chapter 12
复制代码




                                       
                                       

                                       
                                       
                                       




回复

使用道具 举报

懒得打字嘛,点击右侧快捷回复 【右侧内容,后台自定义】
您需要登录后才可以回帖 登录 | 立即加入

本版积分规则

Archiver|小黑屋| 蓝光电影网 |网站地图

Copyright © 2021 Comsenz Inc. Powered by 蓝光电影网

蓝光电影网

本站内容由用户自主分享和转载自互联网,转载目的在于传递更多信息,并不代表本网赞同其观点和对其真实性负责。

如有侵权、违反国家法律政策行为,请联系我们,我们会第一时间及时清除和处理!

举报反馈邮箱:[email protected]

快速回复 返回顶部 返回列表