找回密码

蓝光电影网

查看: 16|回复: 0

[恐怖] 驱魔人/大法师 The.Exorcist.1973.iNTERNAL.DC.1080p.BluRay.x264-LCHD 9.83GB

[复制链接]
蓝光币
382
发表于 2020-11-28 10:14:40 | 显示全部楼层 |阅读模式


◎译  名 驱魔人/大法师(台)
◎片  名 The Exorcist
◎年  代 1973
◎产  地 美国
◎类  别 可骇
◎语  言 英语,拉丁语,希腊语,法语,德语,阿拉伯语
◎上映日期 1973-12-26
◎IMDb评分  8/10 from 359697 users
◎IMDb链接  https://www.imdb.com/title/tt0070047/
◎豆瓣评分 7.6/10 from 57023 users
◎豆瓣链接 https://movie.douban.com/subject/1293755/
◎片  长 122 分钟
◎导  演 威廉·弗莱德金 William Friedkin
◎编  剧 威廉·皮特·布拉蒂 William Peter Blatty
◎主  演 艾伦·伯斯汀 Ellen Burstyn
       马克斯·冯·叙多夫 Max von Sydow
       李·科布 Lee J. Cobb
       琳达·布莱尔 Linda Blair
       杰森·米勒 Jason Miller
       吉蒂·温 Kitty Winn
◎标  签 可骇 | 宗教 | 美国 | 惊悚 | 典范 | 驱魔人 | 1973 | 美国电影
◎简  介


  愁云暗澹的华盛顿市,一幢普通公寓内,单身妈妈克莉丝(艾伦·鲍斯汀 Ellen Burstyn 饰)和女儿芮根生活于此。但是近一段时候,克莉丝却被女儿各种怪异的举止熬煎得焦躁不胜。芮根的行为举止怪异,悬殊凡人。克莉丝带她求医问卜,终无所获,甚至精神科医生也一筹莫展。万般无 奈之下,几近失望的母亲乞助于莫林神父(马克斯·冯·西多 Max von Sydow 饰),一个有着丰富驱魔经历的老者。可骇的夜晚,神父与存身少女体内的恶魔展开连番较劲。这是一个必定让无数人永生难忘的恶魔之夜……
  
  本片由William Batty按照1949年一路实在的驱魔事务创作的小说改编,荣获奥斯卡金像奖最好混音奖和最好改编剧本奖。
◎获奖情况
  第46届奥斯卡金像奖 ?(1974)
  最好影片(提名) 威廉·皮特·布拉蒂
  最好导演(提名) 威廉·弗莱德金
  最好女配角(提名) 艾伦·伯斯汀
  最好男配角(提名) 杰森·米勒
  最好女配角(提名) 琳达·布莱尔
  最好改编剧本 威廉·皮特·布拉蒂
  最好摄影(提名) 欧文·罗兹曼
  最好剪辑(提名) 约翰·C·布罗德里克?/?埃文·A·洛特曼?/?巴德·S·史姑娘?/?诺尔曼盖
  最好声响 罗伯特·努德森?/?克里斯托弗·纽曼
  最好艺术指导(提名) 杰瑞·汪德利希?/?比尔·马利
  1. Video
  2. ID                                       : 1
  3. Format                                   : AVC
  4. Format/Info                              : Advanced Video Codec
  5. Format profile                           : [email protected]
  6. Format settings                          : CABAC / 4 Ref Frames
  7. Format settings, CABAC                   : Yes
  8. Format settings, Reference frames        : 4 frames
  9. Codec ID                                 : V_MPEG4/ISO/AVC
  10. Duration                                 : 2 h 12 min
  11. Bit rate                                 : 9 124 kb/s
  12. Width                                    : 1 920 pixels
  13. Height                                   : 1 080 pixels
  14. Display aspect ratio                     : 16:9
  15. Frame rate mode                          : Constant
  16. Frame rate                               : 23.976 FPS
  17. Color space                              : YUV
  18. Chroma subsampling                       : 4:2:0
  19. Bit depth                                : 8 bits
  20. Scan type                                : Progressive
  21. Bits/(Pixel*Frame)                       : 0.184
  22. Stream size                              : 8.24 GiB (84%)
  23. Writing library                          : x264 core 142 r2479 dd79a61
  24. Encoding settings                        : cabac=1 / ref=4 / deblock=1:-1:-1 / analyse=0x3:0x113 / me=umh / subme=7 / psy=1 / psy_rd=1.00:0.00 / mixed_ref=1 / me_range=16 / chroma_me=1 / trellis=1 / 8x8dct=1 / cqm=0 / deadzone=21,11 / fast_pskip=1 / chroma_qp_offset=-2 / threads=6 / lookahead_threads=1 / sliced_threads=0 / nr=0 / decimate=1 / interlaced=0 / bluray_compat=0 / constrained_intra=0 / bframes=3 / b_pyramid=2 / b_adapt=2 / b_bias=0 / direct=3 / weightb=1 / open_gop=0 / weightp=2 / keyint=250 / keyint_min=23 / scenecut=40 / intra_refresh=0 / rc_lookahead=40 / rc=2pass / mbtree=1 / bitrate=9124 / ratetol=1.0 / qcomp=0.60 / qpmin=0 / qpmax=69 / qpstep=4 / cplxblur=20.0 / qblur=0.5 / vbv_maxrate=50000 / vbv_bufsize=50000 / nal_hrd=none / filler=0 / ip_ratio=1.40 / aq=1:1.00
  25. Language                                 : English
  26. Default                                  : Yes
  27. Forced                                   : No

  28. Audio
  29. ID                                       : 2
  30. Format                                   : DTS ES
  31. Format/Info                              : Digital Theater Systems
  32. Commercial name                          : DTS-ES Matrix
  33. Codec ID                                 : A_DTS
  34. Duration                                 : 2 h 12 min
  35. Bit rate mode                            : Constant
  36. Bit rate                                 : 1 509 kb/s
  37. Channel(s)                               : 6 channels
  38. Channel(s)_Original                      : 7 channels
  39. ChannelLayout_Original                   : C L R Ls Rs Cs LFE
  40. Sampling rate                            : 48.0 kHz
  41. Frame rate                               : 93.750 FPS (512 SPF)
  42. Bit depth                                : 24 bits
  43. Compression mode                         : Lossy
  44. Stream size                              : 1.40 GiB (14%)
  45. Language                                 : English
  46. Default                                  : Yes
  47. Forced                                   : No

  48. Text
  49. ID                                       : 3
  50. Format                                   : UTF-8
  51. Codec ID                                 : S_TEXT/UTF8
  52. Codec ID/Info                            : UTF-8 Plain Text
  53. Language                                 : English
  54. Default                                  : Yes
  55. Forced                                   : No
复制代码






                                       
                                       

                                       
                                       
                                       




回复

使用道具 举报

懒得打字嘛,点击右侧快捷回复 【右侧内容,后台自定义】
您需要登录后才可以回帖 登录 | 立即加入

本版积分规则

Archiver|小黑屋| 蓝光电影网 |网站地图

Copyright © 2021 Comsenz Inc. Powered by 蓝光电影网

蓝光电影网

本站内容由用户自主分享和转载自互联网,转载目的在于传递更多信息,并不代表本网赞同其观点和对其真实性负责。

如有侵权、违反国家法律政策行为,请联系我们,我们会第一时间及时清除和处理!

举报反馈邮箱:[email protected]

快速回复 返回顶部 返回列表