找回密码

蓝光电影网

查看: 23|回复: 0

[惊悚] 绝命大逃亡/匿名 The.In.Crowd.2000.720p.BluRay.x264-MiMiC 3.81GB

[复制链接]
蓝光币
382
发表于 2021-6-25 08:45:54 | 显示全部楼层 |阅读模式
[img][/img]

◎译  名 绝命大流亡/匿名
◎片  名 Incognito
◎年  代 1997
◎产  地 美国
◎类  别 惊悚 / 犯罪
◎语  言 英语
◎上映日期 1998-03-13(美国)
◎豆瓣评分 7.5/10 from 101 users
◎豆瓣链接 https://movie.douban.com/subject/1295811/
◎片  长 108分钟
◎导  演 约翰·班德汉姆 John Badham
◎主  演 杰森·帕特里克 Jason Patric
       伊莲娜·雅各布 Irène Jacob
       伊恩·理查森 Ian Richardson
       皮普·托伦斯 Pip Torrens
       罗德·斯泰格尔 Rod Steiger
       伊川东吾 Togo Igawa
       杜德里·沙顿 Dudley Sutton
       伊安·霍姆 Ian Holm
       Joseph Blatchley Joseph Blatchley
       奥利维尔·皮埃尔 Olivier Pierre
◎标  签 犯罪 | 艺术 | 美国电影 | 绝命大流亡 | 美国 | 剧情 | 恋爱 | 被轻忽的电影
◎简  介


  哈利·唐纳文一个模仿天下级名画的高手,就在他决议脱胎换骨时,忽然有人出价50万美金,要他去模仿一位荷兰画家的名画,此时,一位美丽的艺术学院女门生闯入了哈利的心扉,究竟她的目标何在?
  1. Video
  2. ID                                       : 1
  3. Format                                   : AVC
  4. Format/Info                              : Advanced Video Codec
  5. Format profile                           : [email protected]
  6. Format settings                          : CABAC / 8 Ref Frames
  7. Format settings, CABAC                   : Yes
  8. Format settings, Reference frames        : 8 frames
  9. Codec ID                                 : V_MPEG4/ISO/AVC
  10. Duration                                 : 1 h 45 min
  11. Bit rate                                 : 4 542 kb/s
  12. Width                                    : 1 280 pixels
  13. Height                                   : 722 pixels
  14. Display aspect ratio                     : 16:9
  15. Frame rate mode                          : Constant
  16. Frame rate                               : 23.976 (24000/1001/189150) FPS
  17. Color space                              : YUV
  18. Chroma subsampling                       : 4:2:0
  19. Bit depth                                : 8 bits
  20. Scan type                                : Progressive
  21. Bits/(Pixel*Frame)                       : 0.205
  22. Stream size                              : 3.36 GiB (88%)
  23. Writing library                          : x264 core 164 r3065 ae03d92
  24. Encoding settings                        : cabac=1 / ref=8 / deblock=1:0:0 / analyse=0x3:0x133 / me=umh / subme=9 / psy=1 / psy_rd=1.00:0.00 / mixed_ref=1 / me_range=16 / chroma_me=1 / trellis=2 / 8x8dct=1 / cqm=0 / deadzone=21,11 / fast_pskip=0 / chroma_qp_offset=-2 / threads=18 / lookahead_threads=1 / sliced_threads=0 / nr=0 / decimate=0 / interlaced=0 / bluray_compat=0 / constrained_intra=0 / bframes=3 / b_pyramid=2 / b_adapt=2 / b_bias=0 / direct=3 / weightb=1 / open_gop=0 / weightp=2 / keyint=240 / keyint_min=23 / scenecut=40 / intra_refresh=0 / rc=crf / mbtree=0 / crf=19.9 / qcomp=0.60 / qpmin=0 / qpmax=69 / qpstep=4 / ip_ratio=1.40 / pb_ratio=1.30 / aq=1:1.00
  25. Default                                  : Yes
  26. Forced                                   : No
  27. Color range                              : Limited
  28. Matrix coefficients                      : BT.709

  29. Audio
  30. ID                                       : 2
  31. Format                                   : FLAC
  32. Format/Info                              : Free Lossless Audio Codec
  33. Codec ID                                 : A_FLAC
  34. Duration                                 : 1 h 45 min
  35. Bit rate mode                            : Variable
  36. Bit rate                                 : 605 kb/s
  37. Channel(s)                               : 2 channels
  38. Channel layout                           : L R
  39. Sampling rate                            : 48.0 kHz
  40. Frame rate                               : 10.417 FPS (4608 SPF)
  41. Bit depth                                : 24 bits
  42. Compression mode                         : Lossless
  43. Stream size                              : 458 MiB (12%)
  44. Writing library                          : Lavf58.45.100
  45. Language                                 : English
  46. Default                                  : Yes
  47. Forced                                   : No

  48. Text
  49. ID                                       : 3
  50. Format                                   : PGS
  51. Muxing mode                              : zlib
  52. Codec ID                                 : S_HDMV/PGS
  53. Codec ID/Info                            : Picture based subtitle format used on BDs/HD-DVDs
  54. Duration                                 : 1 h 45 min
  55. Bit rate                                 : 19.9 kb/s
  56. Count of elements                        : 2209
  57. Stream size                              : 15.1 MiB (0%)
  58. Language                                 : English
  59. Default                                  : No
  60. Forced                                   : No

  61. Menu
  62. 00:00:00.000                             : Chapter 01
  63. 00:08:47.402                             : Chapter 02
  64. 00:22:29.849                             : Chapter 03
  65. 00:34:17.305                             : Chapter 04
  66. 00:46:29.704                             : Chapter 05
  67. 01:00:12.859                             : Chapter 06
  68. 01:15:03.416                             : Chapter 07
  69. 01:30:20.832                             : Chapter 08
  70. 01:41:37.174                             : Chapter 09
复制代码




                                       
                                       

                                       
                                       
                                       




回复

使用道具 举报

懒得打字嘛,点击右侧快捷回复 【右侧内容,后台自定义】
您需要登录后才可以回帖 登录 | 立即加入

本版积分规则

Archiver|小黑屋| 蓝光电影网 |网站地图

Copyright © 2021 Comsenz Inc. Powered by 蓝光电影网

蓝光电影网

本站内容由用户自主分享和转载自互联网,转载目的在于传递更多信息,并不代表本网赞同其观点和对其真实性负责。

如有侵权、违反国家法律政策行为,请联系我们,我们会第一时间及时清除和处理!

举报反馈邮箱:[email protected]

快速回复 返回顶部 返回列表