找回密码

蓝光电影网

查看: 10|回复: 0

[喜剧] 海扁王/劲揪侠 Kick-Ass.2010.1080p.BluRay.X264-LCHD 7.94GB

[复制链接]
蓝光币
382
发表于 2020-8-18 11:07:48 | 显示全部楼层 |阅读模式


◎译  名 海扁王 / 劲揪侠(港) / 特攻同盟(台) / 超屌侠
◎片  名 Kick-Ass
◎年  代 2010
◎产  地 美国 / 英国
◎类  别 笑剧 / 行动 / 犯罪
◎语  言 英语
◎上映日期 2010-04-16
◎IMDb评分  7.6/10 from 517107 users
◎IMDb链接  https://www.imdb.com/title/tt1250777
◎豆瓣评分 7.5/10 from 201700 users
◎豆瓣链接 https://movie.douban.com/subject/3148748/
◎片  长 117 分钟
◎导  演 Matthew Vaughn
◎编  剧 Jane Goldman / Matthew Vaughn
◎主  演 亚伦·约翰逊 Aaron Johnson
       科洛·莫瑞兹 Chloe Moretz
       尼古拉斯·凯奇 Nicolas Cage
       克里斯托夫·梅兹-普莱瑟 Christopher Mintz-Plasse
       马克·斯创 Mark Strong
       琳德西·冯塞卡 Lyndsy Fonseca
       伊万·彼得斯 Evan Peters
       克拉克 杜克 Clark Duke
       黛博拉·特维斯 Deborah Twiss
       Garrett M. Brown
       苏菲·吴 Sophie Wu

◎标  签 美国 | 笑剧 | 行动 | 漫画改编 | 暴力 | 黑色诙谐 | 2010 | 搞笑
◎简  介

  
  戴夫·莱泽斯基(亚伦·约翰逊 Aaron Johnson 饰)和一切普通的男孩一样,胡想有一天可以成为超级豪杰,只不外他把自己的这一胡想带入了现实。在网上采办到一套廉价的绿色连体衣以后,戴夫便起头了单身冲击犯罪的行动。虽然第一次行动便让戴夫身负重伤,不外戴夫可不是一个轻言放弃的人,伤愈以后的戴夫在一次阻止打斗时,被热情的大众发现并拍摄,以后关于超级豪杰“海扁王”的业绩便传遍全部城市。成为传闻中超级豪杰的戴夫在一次行动中结识超级豪杰父女“大爸爸”(尼古拉斯·凯奇 Nicolas Cage饰)和“超杀女”(科洛·莫瑞兹 Chloe Moretz 饰),以后戴夫遭毒枭团体老迈弗兰克·阿米克(马克·斯特朗 Mark Strong 饰)之子伪装成的豪杰“红旋风”(克里斯托夫·梅兹-普莱瑟 Christopher Mintz-Plasse 饰)的操纵,让“大爸爸”和自己身陷囹圉。危难之时,“超杀女”实时出现救出戴夫,但“大爸爸” 却不幸身亡。“超杀女”决议完成其父遗志,完全消灭毒枭团体……
  本片按照马克·米勒(Mark Millar)著名同名漫画改编。
◎获奖情况  
  第23届欧洲电影奖(2010)
  观众挑选奖(提名)
  第20届MTV电影奖(2011)
  MTV电影奖 冲破表演奖 科洛·莫瑞兹
  MTV电影奖 最好打架(提名) 科洛·莫瑞兹 / 马克·斯特朗
  第10届凤凰城影评人协会奖(2010)
  最好女配角(提名) 科洛·莫瑞兹
  最好特技表演(提名)
  最具冲破表演 科洛·莫瑞兹
  第12届美国青少年挑选奖(2010)
  最好行动冒险电影(提名)
  最好行动冒险电影男演员(提名) 尼古拉斯·凯奇
  最好电影反派(提名) 克里斯托夫·梅兹-普莱瑟
  Choice Movie Breakout: Male(提名) 亚伦·泰勒-约翰逊
  Choice Movie Breakout: Female(提名) 科洛·莫瑞兹
  1. Video
  2. ID                                       : 1
  3. Format                                   : AVC
  4. Format/Info                              : Advanced Video Codec
  5. Format profile                           : [email protected]
  6. Format settings                          : CABAC / 5 Ref Frames
  7. Format settings, CABAC                   : Yes
  8. Format settings, Reference frames        : 5 frames
  9. Codec ID                                 : V_MPEG4/ISO/AVC
  10. Duration                                 : 1 h 57 min
  11. Bit rate                                 : 8 147 kb/s
  12. Width                                    : 1 920 pixels
  13. Height                                   : 800 pixels
  14. Display aspect ratio                     : 2.40:1
  15. Frame rate mode                          : Constant
  16. Frame rate                               : 23.976 (24000/1001/189150) FPS
  17. Color space                              : YUV
  18. Chroma subsampling                       : 4:2:0
  19. Bit depth                                : 8 bits
  20. Scan type                                : Progressive
  21. Bits/(Pixel*Frame)                       : 0.221
  22. Stream size                              : 6.54 GiB (82%)
  23. Writing library                          : x264 core 104 r1677 19df41a
  24. Encoding settings                        : cabac=1 / ref=5 / deblock=1:-1:-1 / analyse=0x3:0x113 / me=umh / subme=7 / psy=1 / psy_rd=1.00:0.00 / mixed_ref=1 / me_range=16 / chroma_me=1 / trellis=1 / 8x8dct=1 / cqm=0 / deadzone=21,11 / fast_pskip=1 / chroma_qp_offset=-2 / threads=6 / sliced_threads=0 / nr=0 / decimate=1 / interlaced=0 / constrained_intra=0 / bframes=3 / b_pyramid=2 / b_adapt=2 / b_bias=0 / direct=3 / weightb=1 / open_gop=0 / weightp=2 / keyint=250 / keyint_min=23 / scenecut=40 / intra_refresh=0 / rc_lookahead=40 / rc=2pass / mbtree=1 / bitrate=8147 / ratetol=1.0 / qcomp=0.60 / qpmin=10 / qpmax=51 / qpstep=4 / cplxblur=20.0 / qblur=0.5 / vbv_maxrate=50000 / vbv_bufsize=50000 / ip_ratio=1.40 / aq=1:1.00 / nal_hrd=none
  25. Language                                 : English
  26. Default                                  : Yes
  27. Forced                                   : Yes

  28. Audio
  29. ID                                       : 2
  30. Format                                   : DTS
  31. Format/Info                              : Digital Theater Systems
  32. Codec ID                                 : A_DTS
  33. Duration                                 : 1 h 57 min
  34. Bit rate mode                            : Constant
  35. Bit rate                                 : 1 509 kb/s
  36. Channel(s)                               : 6 channels
  37. Channel layout                           : C L R Ls Rs LFE
  38. Sampling rate                            : 48.0 kHz
  39. Frame rate                               : 93.750 FPS (512 SPF)
  40. Bit depth                                : 24 bits
  41. Compression mode                         : Lossy
  42. Stream size                              : 1.24 GiB (16%)
  43. Language                                 : English
  44. Default                                  : Yes
  45. Forced                                   : Yes
复制代码






                                       
                                       

                                       
                                       
                                       




回复

使用道具 举报

懒得打字嘛,点击右侧快捷回复 【右侧内容,后台自定义】
您需要登录后才可以回帖 登录 | 立即加入

本版积分规则

Archiver|小黑屋| 蓝光电影网 |网站地图

Copyright © 2021 Comsenz Inc. Powered by 蓝光电影网

蓝光电影网

本站内容由用户自主分享和转载自互联网,转载目的在于传递更多信息,并不代表本网赞同其观点和对其真实性负责。

如有侵权、违反国家法律政策行为,请联系我们,我们会第一时间及时清除和处理!

举报反馈邮箱:[email protected]

快速回复 返回顶部 返回列表