找回密码

蓝光电影网

查看: 33|回复: 0

[惊悚] 亲属关系 Kindred.2020.720p.BluRay.x264-MiMiC 4.27GB

[复制链接]
蓝光币
426
发表于 2021-6-23 12:50:59 | 显示全部楼层 |阅读模式
[img][/img]

◎译  名 支属关系/Corvidae/鸦科
◎片  名 Kindred
◎年  代 2020
◎产  地 英国
◎类  别 惊悚
◎语  言 英语
◎上映日期 2020-11-06(美国)
◎豆瓣评分 4.6/10 from 94 users
◎豆瓣链接 https://movie.douban.com/subject/30456563/
◎主  演 费奥纳·肖 Fiona Shaw
       爱德华·霍尔克罗夫特 Edward Holcroft
       杰克·劳登 Jack Lowden
       克洛伊·皮里 Chloe Pirrie
       安东·莱瑟 Anton Lesser
       卡伦·索尼娅·塞沃尔 Kiran Sonia Sawar
       塔马拉·劳伦斯 Tamara Lawrance
◎标  签 惊悚 | 英国 | 2020 | 英国电影 | 杰克·劳登 | 可骇 | 菲奥娜·肖 | 电影
◎简  介


  故事报告男友意外归天,精神懦弱的女友怀着孕来到了男友的家庭中,男友的家人对她的每个行为都不时关注。由于精神幻觉的困扰,她对男友家人的意图发生了思疑。
◎获奖情况
  第23届英国自力电影奖 ?(2020)
  最好女配角(提名) 费奥纳·肖
  1. Video
  2. ID                                       : 1
  3. Format                                   : AVC
  4. Format/Info                              : Advanced Video Codec
  5. Format profile                           : [email protected]
  6. Format settings                          : CABAC / 8 Ref Frames
  7. Format settings, CABAC                   : Yes
  8. Format settings, Reference frames        : 8 frames
  9. Codec ID                                 : V_MPEG4/ISO/AVC
  10. Duration                                 : 1 h 40 min
  11. Bit rate                                 : 5 403 kb/s
  12. Width                                    : 1 280 pixels
  13. Height                                   : 536 pixels
  14. Display aspect ratio                     : 2.40:1
  15. Frame rate mode                          : Constant
  16. Frame rate                               : 23.976 (24000/1001/189150) FPS
  17. Color space                              : YUV
  18. Chroma subsampling                       : 4:2:0
  19. Bit depth                                : 8 bits
  20. Scan type                                : Progressive
  21. Bits/(Pixel*Frame)                       : 0.328
  22. Stream size                              : 3.80 GiB (89%)
  23. Writing library                          : x264 core 164 r3065 ae03d92
  24. Encoding settings                        : cabac=1 / ref=8 / deblock=1:0:0 / analyse=0x3:0x133 / me=umh / subme=9 / psy=1 / psy_rd=1.00:0.00 / mixed_ref=1 / me_range=16 / chroma_me=1 / trellis=2 / 8x8dct=1 / cqm=0 / deadzone=21,11 / fast_pskip=0 / chroma_qp_offset=-2 / threads=17 / lookahead_threads=1 / sliced_threads=0 / nr=0 / decimate=0 / interlaced=0 / bluray_compat=0 / constrained_intra=0 / bframes=3 / b_pyramid=2 / b_adapt=2 / b_bias=0 / direct=3 / weightb=1 / open_gop=0 / weightp=2 / keyint=240 / keyint_min=23 / scenecut=40 / intra_refresh=0 / rc=crf / mbtree=0 / crf=17.0 / qcomp=0.60 / qpmin=0 / qpmax=69 / qpstep=4 / ip_ratio=1.40 / pb_ratio=1.30 / aq=1:1.00
  25. Default                                  : Yes
  26. Forced                                   : No
  27. Color range                              : Limited
  28. Matrix coefficients                      : BT.709

  29. Audio
  30. ID                                       : 2
  31. Format                                   : AC-3
  32. Format/Info                              : Audio Coding 3
  33. Commercial name                          : Dolby Digital
  34. Codec ID                                 : A_AC3
  35. Duration                                 : 1 h 40 min
  36. Bit rate mode                            : Constant
  37. Bit rate                                 : 640 kb/s
  38. Channel(s)                               : 6 channels
  39. Channel layout                           : L R C LFE Ls Rs
  40. Sampling rate                            : 48.0 kHz
  41. Frame rate                               : 31.250 FPS (1536 SPF)
  42. Compression mode                         : Lossy
  43. Stream size                              : 461 MiB (11%)
  44. Language                                 : English
  45. Service kind                             : Complete Main
  46. Default                                  : Yes
  47. Forced                                   : No

  48. Text #1
  49. ID                                       : 3
  50. Format                                   : PGS
  51. Muxing mode                              : zlib
  52. Codec ID                                 : S_HDMV/PGS
  53. Codec ID/Info                            : Picture based subtitle format used on BDs/HD-DVDs
  54. Duration                                 : 1 h 38 min
  55. Bit rate                                 : 27.9 kb/s
  56. Count of elements                        : 1996
  57. Stream size                              : 19.7 MiB (0%)
  58. Language                                 : English
  59. Default                                  : No
  60. Forced                                   : No

  61. Text #2
  62. ID                                       : 4
  63. Format                                   : PGS
  64. Muxing mode                              : zlib
  65. Codec ID                                 : S_HDMV/PGS
  66. Codec ID/Info                            : Picture based subtitle format used on BDs/HD-DVDs
  67. Duration                                 : 1 h 35 min
  68. Bit rate                                 : 26.6 kb/s
  69. Count of elements                        : 1844
  70. Stream size                              : 18.2 MiB (0%)
  71. Language                                 : Spanish
  72. Default                                  : No
  73. Forced                                   : No

  74. Menu
  75. 00:00:00.000                             : Chapter 01
  76. 00:08:06.569                             : Chapter 02
  77. 00:17:14.700                             : Chapter 03
  78. 00:23:48.510                             : Chapter 04
  79. 00:31:16.708                             : Chapter 05
  80. 00:39:45.383                             : Chapter 06
  81. 00:49:55.910                             : Chapter 07
  82. 00:57:05.088                             : Chapter 08
  83. 01:06:11.217                             : Chapter 09
  84. 01:12:21.128                             : Chapter 10
  85. 01:22:54.386                             : Chapter 11
  86. 01:29:45.338                             : Chapter 12
复制代码




                                       
                                       

                                       
                                       
                                       




回复

使用道具 举报

懒得打字嘛,点击右侧快捷回复 【右侧内容,后台自定义】
您需要登录后才可以回帖 登录 | 立即加入

本版积分规则

Archiver|小黑屋| 蓝光电影网 |网站地图

Copyright © 2021 Comsenz Inc. Powered by 蓝光电影网

蓝光电影网

本站内容由用户自主分享和转载自互联网,转载目的在于传递更多信息,并不代表本网赞同其观点和对其真实性负责。

如有侵权、违反国家法律政策行为,请联系我们,我们会第一时间及时清除和处理!

举报反馈邮箱:[email protected]

快速回复 返回顶部 返回列表