找回密码

蓝光电影网

查看: 18|回复: 0

[动作] 高地行动 High.Ground.2020.720p.BluRay.x264.DTS-FGT 5.13GB

[复制链接]
蓝光币
386
发表于 2020-12-5 09:18:32 | 显示全部楼层 |阅读模式


◎译  名 高地行动
◎片  名 High Ground
◎年  代 2020
◎产  地 澳大利亚
◎类  别 行动 / 惊悚 / 历史 / 西部
◎语  言 英语,雍古语
◎上映日期 2020-02-23(柏林电影节) / 2020-07-09(澳大利亚)
◎IMDb评分  6.3/10 from 174 users
◎IMDb链接  https://www.imdb.com/title/tt9286908/
◎豆瓣评分 /10 from 0 users
◎豆瓣链接 https://movie.douban.com/subject/34955339/
◎片  长 104分钟
◎导  演 斯蒂芬·麦克斯韦·约翰逊 Stephen Maxwell Johnson
◎编  剧 克里斯·阿纳斯塔西亚德斯 Chris Anastassiades
◎主  演 西蒙·贝克 Simon Baker
       卡兰·马尔韦 Callan Mulvey
       杰克·汤普森 Jack Thompson
       凯伦·皮斯托里斯 Caren Pistorius
       瑞安·柯尔 Ryan Corr
       约翰·布鲁普顿 John Brumpton
       大卫·菲尔德 David Field
       安迪·麦克菲 Andy McPhee
       亚伦·佩德森 Aaron Pedersen
◎标  签 西部 | 澳大利亚 | 2020 | P-BerlinD出格展映 | Berlin出格展映
◎简  介


  1919. After fighting in WWI as a sniper Travis, now a Policeman in the vast empty spaces of northern Australia, loses control of an operation that results in the massacre of an Indigenous tribe. After his superiors insist on burying the truth Travis leaves in disgust, only to be forced back twelve years later to hunt down Baywara, an Aboriginal warrior whose attacks on new-settlers are causing havoc. When Travis recruits mission-raised Gutjuk, the only known massacre-survivor as his Tracker, the truth of the past is revealed and Travis becomes the hunted.
  1. Video
  2. ID                                       : 1
  3. Format                                   : AVC
  4. Format/Info                              : Advanced Video Codec
  5. Format profile                           : [email protected]
  6. Format settings                          : CABAC / 4 Ref Frames
  7. Format settings, CABAC                   : Yes
  8. Format settings, Reference frames        : 4 frames
  9. Codec ID                                 : V_MPEG4/ISO/AVC
  10. Duration                                 : 1 h 44 min
  11. Bit rate                                 : 5 500 kb/s
  12. Width                                    : 1 192 pixels
  13. Height                                   : 720 pixels
  14. Display aspect ratio                     : 5:3
  15. Frame rate mode                          : Constant
  16. Frame rate                               : 24.000 FPS
  17. Color space                              : YUV
  18. Chroma subsampling                       : 4:2:0
  19. Bit depth                                : 8 bits
  20. Scan type                                : Progressive
  21. Bits/(Pixel*Frame)                       : 0.267
  22. Stream size                              : 4.02 GiB (78%)
  23. Title                                    : High.Ground.2020.720p.BluRay.x264.DTS-FGT
  24. Writing library                          : x264 core 148 r2748 97eaef2
  25. Encoding settings                        : cabac=1 / ref=4 / deblock=1:-2:-2 / analyse=0x3:0x113 / me=umh / subme=9 / psy=1 / psy_rd=1.00:0.15 / mixed_ref=1 / me_range=16 / chroma_me=1 / trellis=2 / 8x8dct=1 / cqm=0 / deadzone=21,11 / fast_pskip=1 / chroma_qp_offset=-3 / threads=72 / lookahead_threads=3 / sliced_threads=0 / nr=0 / decimate=1 / interlaced=0 / bluray_compat=0 / constrained_intra=0 / bframes=3 / b_pyramid=2 / b_adapt=1 / b_bias=0 / direct=3 / weightb=1 / open_gop=0 / weightp=2 / keyint=250 / keyint_min=25 / scenecut=40 / intra_refresh=0 / rc_lookahead=50 / rc=2pass / mbtree=1 / bitrate=5500 / ratetol=1.0 / qcomp=0.60 / qpmin=0 / qpmax=69 / qpstep=4 / cplxblur=20.0 / qblur=0.5 / vbv_maxrate=31250 / vbv_bufsize=31250 / nal_hrd=none / filler=0 / ip_ratio=1.40 / aq=1:1.00
  26. Language                                 : English
  27. Default                                  : Yes
  28. Forced                                   : No
  29. Audio
  30. ID                                       : 2
  31. ID in the original source medium         : 4353 (0x1101)
  32. Format                                   : DTS
  33. Format/Info                              : Digital Theater Systems
  34. Codec ID                                 : A_DTS
  35. Duration                                 : 1 h 44 min
  36. Bit rate mode                            : Constant
  37. Bit rate                                 : 1 509 kb/s
  38. Channel(s)                               : 6 channels
  39. Channel layout                           : C L R Ls Rs LFE
  40. Sampling rate                            : 48.0 kHz
  41. Frame rate                               : 93.750 FPS (512 SPF)
  42. Bit depth                                : 16 bits
  43. Compression mode                         : Lossy
  44. Stream size                              : 1.10 GiB (22%)
  45. Title                                    : High.Ground.2020.720p.BluRay.x264.DTS-FGT
  46. Language                                 : English
  47. Default                                  : No
  48. Forced                                   : No
  49. Original source medium                   : Blu-ray
  50. Text
  51. ID                                       : 3
  52. Format                                   : UTF-8
  53. Codec ID                                 : S_TEXT/UTF8
  54. Codec ID/Info                            : UTF-8 Plain Text
  55. Duration                                 : 1 h 24 min
  56. Bit rate                                 : 8 b/s
  57. Count of elements                        : 207
  58. Stream size                              : 5.12 KiB (0%)
  59. Title                                    : FORCED
  60. Language                                 : English
  61. Default                                  : Yes
  62. Forced                                   : Yes
  63. Menu
  64. 00:00:00.000                             : en:Chapter 01
  65. 00:02:20.000                             : en:Chapter 02
  66. 00:06:05.083                             : en:Chapter 03
  67. 00:14:14.625                             : en:Chapter 04
  68. 00:20:32.916                             : en:Chapter 05
  69. 00:26:07.791                             : en:Chapter 06
  70. 00:37:07.291                             : en:Chapter 07
  71. 00:49:56.333                             : en:Chapter 08
  72. 00:58:27.750                             : en:Chapter 09
  73. 01:08:08.416                             : en:Chapter 10
  74. 01:20:08.583                             : en:Chapter 11
  75. 01:35:24.791                             : en:Chapter 12
复制代码






                                       
                                       

                                       
                                       
                                       




回复

使用道具 举报

懒得打字嘛,点击右侧快捷回复 【右侧内容,后台自定义】
您需要登录后才可以回帖 登录 | 立即加入

本版积分规则

Archiver|小黑屋| 蓝光电影网 |网站地图

Copyright © 2021 Comsenz Inc. Powered by 蓝光电影网

蓝光电影网

本站内容由用户自主分享和转载自互联网,转载目的在于传递更多信息,并不代表本网赞同其观点和对其真实性负责。

如有侵权、违反国家法律政策行为,请联系我们,我们会第一时间及时清除和处理!

举报反馈邮箱:[email protected]

快速回复 返回顶部 返回列表