找回密码

蓝光电影网

查看: 30|回复: 0

[恐怖] 白昼寒光 Cold.Light.Of.Day.1989.1080p.BluRay.x264-HANDJOB 10.88GB

[复制链接]
蓝光币
509
发表于 2020-11-26 09:45:09 | 显示全部楼层 |阅读模式


◎译  名 白天冷光/Killers Kiss
◎片  名 Cold Light of Day
◎年  代 1989
◎产  地 英国
◎类  别 可骇 / 列传 / 犯罪
◎语  言 英语
◎上映日期 
◎IMDb评分  5.2/10 from 138 users
◎IMDb链接  https://www.imdb.com/title/tt0356476/
◎豆瓣评分 /10 from 0 users
◎豆瓣链接 https://movie.douban.com/subject/11526062/
◎片  长 81分钟
◎主  演 鲍勃·弗莱格 Bob Flag
◎标  签 英国电影 | 犯罪 | 可骇 | 列传 | P-VeniceC入围国际影评人周
◎简  介


  Fictionalized account based on the actions of serial killer Dennis Nilsen.
  1. Video
  2. ID                                       : 1
  3. Format                                   : AVC
  4. Format/Info                              : Advanced Video Codec
  5. Format profile                           : [email protected]
  6. Format settings                          : CABAC / 5 Ref Frames
  7. Format settings, CABAC                   : Yes
  8. Format settings, Reference frames        : 5 frames
  9. Codec ID                                 : V_MPEG4/ISO/AVC
  10. Duration                                 : 1 h 19 min
  11. Bit rate                                 : 19.3 Mb/s
  12. Width                                    : 1 436 pixels
  13. Height                                   : 1 080 pixels
  14. Display aspect ratio                     : 4:3
  15. Frame rate mode                          : Constant
  16. Frame rate                               : 23.976 (24000/1001/189150) FPS
  17. Color space                              : YUV
  18. Chroma subsampling                       : 4:2:0
  19. Bit depth                                : 8 bits
  20. Scan type                                : Progressive
  21. Bits/(Pixel*Frame)                       : 0.519
  22. Stream size                              : 10.7 GiB (99%)
  23. Writing library                          : x264 core 155 r2917 0a84d98
  24. Encoding settings                        : cabac=1 / ref=5 / deblock=1:-3:-3 / analyse=0x3:0x133 / me=umh / subme=10 / psy=1 / psy_rd=1.00:0.25 / mixed_ref=1 / me_range=32 / chroma_me=1 / trellis=2 / 8x8dct=1 / cqm=0 / deadzone=21,11 / fast_pskip=0 / chroma_qp_offset=-4 / threads=34 / lookahead_threads=8 / sliced_threads=0 / nr=0 / decimate=0 / interlaced=0 / bluray_compat=0 / constrained_intra=0 / bframes=16 / b_pyramid=2 / b_adapt=2 / b_bias=0 / direct=3 / weightb=1 / open_gop=0 / weightp=1 / keyint=240 / keyint_min=24 / scenecut=40 / intra_refresh=0 / rc_lookahead=60 / rc=crf / mbtree=0 / crf=24.0 / qcomp=0.75 / qpmin=0 / qpmax=69 / qpstep=4 / vbv_maxrate=62500 / vbv_bufsize=78125 / crf_max=0.0 / nal_hrd=none / filler=0 / ip_ratio=1.40 / pb_ratio=1.30 / aq=1:0.50
  25. Default                                  : Yes
  26. Forced                                   : No
  27. Color range                              : Limited
  28. Color primaries                          : BT.709
  29. Transfer characteristics                 : BT.709
  30. Matrix coefficients                      : BT.709
  31. Audio #1
  32. ID                                       : 2
  33. Format                                   : AAC LC
  34. Format/Info                              : Advanced Audio Codec Low Complexity
  35. Codec ID                                 : A_AAC-2
  36. Duration                                 : 1 h 19 min
  37. Bit rate                                 : 102 kb/s
  38. Channel(s)                               : 2 channels
  39. Channel layout                           : L R
  40. Sampling rate                            : 48.0 kHz
  41. Frame rate                               : 46.875 FPS (1024 SPF)
  42. Compression mode                         : Lossy
  43. Stream size                              : 58.0 MiB (1%)
  44. Language                                 : English
  45. Default                                  : Yes
  46. Forced                                   : No
  47. Audio #2
  48. ID                                       : 3
  49. Format                                   : AAC LC
  50. Format/Info                              : Advanced Audio Codec Low Complexity
  51. Codec ID                                 : A_AAC-2
  52. Duration                                 : 1 h 19 min
  53. Bit rate                                 : 78.4 kb/s
  54. Channel(s)                               : 2 channels
  55. Channel layout                           : L R
  56. Sampling rate                            : 48.0 kHz
  57. Frame rate                               : 46.875 FPS (1024 SPF)
  58. Compression mode                         : Lossy
  59. Stream size                              : 44.7 MiB (0%)
  60. Title                                    : Commentary with Dean Brandum and Andrew Nette
  61. Language                                 : English
  62. Default                                  : No
  63. Forced                                   : No
  64. Audio #3
  65. ID                                       : 4
  66. Format                                   : AAC LC
  67. Format/Info                              : Advanced Audio Codec Low Complexity
  68. Codec ID                                 : A_AAC-2
  69. Duration                                 : 1 h 19 min
  70. Bit rate                                 : 77.3 kb/s
  71. Channel(s)                               : 2 channels
  72. Channel layout                           : L R
  73. Sampling rate                            : 48.0 kHz
  74. Frame rate                               : 46.875 FPS (1024 SPF)
  75. Compression mode                         : Lossy
  76. Stream size                              : 44.1 MiB (0%)
  77. Title                                    : Commentary with Writer/Director Fhiona Louise
  78. Language                                 : English
  79. Default                                  : No
  80. Forced                                   : No
  81. Text #1
  82. ID                                       : 5
  83. Format                                   : UTF-8
  84. Codec ID                                 : S_TEXT/UTF8
  85. Codec ID/Info                            : UTF-8 Plain Text
  86. Duration                                 : 1 h 13 min
  87. Bit rate                                 : 31 b/s
  88. Count of elements                        : 543
  89. Stream size                              : 16.7 KiB (0%)
  90. Language                                 : English
  91. Default                                  : No
  92. Forced                                   : No
  93. Text #2
  94. ID                                       : 6
  95. Format                                   : UTF-8
  96. Codec ID                                 : S_TEXT/UTF8
  97. Codec ID/Info                            : UTF-8 Plain Text
  98. Duration                                 : 1 h 13 min
  99. Bit rate                                 : 32 b/s
  100. Count of elements                        : 608
  101. Stream size                              : 17.5 KiB (0%)
  102. Title                                    : SDH
  103. Language                                 : English
  104. Default                                  : No
  105. Forced                                   : No
  106. Menu
  107. 00:00:00.000                             : :Chapter 1
  108. 00:05:55.397                             : :Chapter 2
  109. 00:11:11.379                             : :Chapter 3
  110. 00:17:04.065                             : :Chapter 4
  111. 00:24:59.123                             : :Chapter 5
  112. 00:31:07.240                             : :Chapter 6
  113. 00:38:15.084                             : :Chapter 7
  114. 00:47:44.612                             : :Chapter 8
  115. 00:54:13.333                             : :Chapter 9
  116. 01:00:47.227                             : :Chapter 10
  117. 01:05:14.786                             : :Chapter 11
  118. 01:12:22.547                             : :Chapter 12
复制代码






                                       
                                       

                                       
                                       
                                       




回复

使用道具 举报

懒得打字嘛,点击右侧快捷回复 【右侧内容,后台自定义】
您需要登录后才可以回帖 登录 | 立即加入

本版积分规则

Archiver|小黑屋| 蓝光电影网 |网站地图

Copyright © 2021 Comsenz Inc. Powered by 蓝光电影网

蓝光电影网

本站内容由用户自主分享和转载自互联网,转载目的在于传递更多信息,并不代表本网赞同其观点和对其真实性负责。

如有侵权、违反国家法律政策行为,请联系我们,我们会第一时间及时清除和处理!

举报反馈邮箱:[email protected]

快速回复 返回顶部 返回列表