找回密码

蓝光电影网

查看: 13|回复: 0

[动作] 谍海危情/谎言的遗产 Legacy.Of.Lies.2020.720p.BluRay.x264-GETiT 1.94GB

[复制链接]
蓝光币
382
发表于 2020-12-2 18:09:38 | 显示全部楼层 |阅读模式


◎译  名 谍海危情/假话的遗产
◎片  名 Legacy of Lies
◎年  代 2020
◎产  地 荷兰,英国,波兰,乌克兰,美国
◎类  别 行动 / 惊悚
◎语  言 英语,乌克兰语,俄语
◎上映日期 2020-07-28(美国)
◎IMDb评分  4.9/10 from 1423 users
◎IMDb链接  https://www.imdb.com/title/tt6834916/
◎豆瓣评分 5.3/10 from 924 users
◎豆瓣链接 https://movie.douban.com/subject/33218225/
◎片  长 102分钟
◎导  演 亚德里安·鲍尔 Ad Bol
◎编  剧 亚德里安·鲍尔 Ad Bol
◎主  演 斯科特·阿金斯 Scott Adkins
       安娜·芭特科薇奇 Anna Butkevych
       Tetiana Nosenko
◎标  签 行动 | 谍战 | 斯科特阿金斯 | 2020 | 英国 | 剧情 | 美国电影 | 荷兰
◎简  介


  阿金斯饰演一位前MI6情报局奸细。已经退休的他发现自己在某一天中因不明缘由又被卷入危机四伏的特务收集合,而策划着惊天诡计的奥秘情报机构也在想方想法抹除他的存在。
  1. Video
  2. ID                                       : 1
  3. Format                                   : AVC
  4. Format/Info                              : Advanced Video Codec
  5. Format profile                           : [email protected]
  6. Format settings                          : CABAC / 8 Ref Frames
  7. Format settings, CABAC                   : Yes
  8. Format settings, Reference frames        : 8 frames
  9. Codec ID                                 : V_MPEG4/ISO/AVC
  10. Duration                                 : 1 h 41 min
  11. Bit rate                                 : 2 084 kb/s
  12. Width                                    : 1 280 pixels
  13. Height                                   : 536 pixels
  14. Display aspect ratio                     : 2.40:1
  15. Frame rate mode                          : Constant
  16. Frame rate                               : 24.000 FPS
  17. Color space                              : YUV
  18. Chroma subsampling                       : 4:2:0
  19. Bit depth                                : 8 bits
  20. Scan type                                : Progressive
  21. Bits/(Pixel*Frame)                       : 0.127
  22. Stream size                              : 1.48 GiB (76%)
  23. Writing library                          : x264 core 161 r3018 db0d417
  24. Encoding settings                        : cabac=1 / ref=8 / deblock=1:-3:-3 / analyse=0x3:0x133 / me=umh / subme=9 / psy=1 / psy_rd=1.00:0.00 / mixed_ref=1 / me_range=16 / chroma_me=1 / trellis=2 / 8x8dct=1 / cqm=0 / deadzone=21,11 / fast_pskip=1 / chroma_qp_offset=-2 / threads=17 / lookahead_threads=1 / sliced_threads=0 / nr=0 / decimate=1 / interlaced=0 / bluray_compat=0 / constrained_intra=0 / bframes=3 / b_pyramid=2 / b_adapt=2 / b_bias=0 / direct=3 / weightb=1 / open_gop=0 / weightp=2 / keyint=250 / keyint_min=24 / scenecut=40 / intra_refresh=0 / rc_lookahead=60 / rc=crf / mbtree=1 / crf=17.0 / qcomp=0.60 / qpmin=0 / qpmax=69 / qpstep=4 / ip_ratio=1.40 / aq=3:0.80
  25. Language                                 : English
  26. Default                                  : Yes
  27. Forced                                   : No
  28. Color range                              : Limited
  29. Matrix coefficients                      : BT.709

  30. Audio
  31. ID                                       : 2
  32. Format                                   : AC-3
  33. Format/Info                              : Audio Coding 3
  34. Commercial name                          : Dolby Digital
  35. Codec ID                                 : A_AC3
  36. Duration                                 : 1 h 41 min
  37. Bit rate mode                            : Constant
  38. Bit rate                                 : 640 kb/s
  39. Channel(s)                               : 6 channels
  40. Channel layout                           : L R C LFE Ls Rs
  41. Sampling rate                            : 48.0 kHz
  42. Frame rate                               : 31.250 FPS (1536 SPF)
  43. Compression mode                         : Lossy
  44. Stream size                              : 465 MiB (23%)
  45. Title                                    : ac3
  46. Language                                 : English
  47. Service kind                             : Complete Main
  48. Default                                  : Yes
  49. Forced                                   : No

  50. Text #1
  51. ID                                       : 3
  52. Format                                   : UTF-8
  53. Codec ID                                 : S_TEXT/UTF8
  54. Codec ID/Info                            : UTF-8 Plain Text
  55. Duration                                 : 1 h 39 min
  56. Bit rate                                 : 1 b/s
  57. Count of elements                        : 53
  58. Stream size                              : 1.17 KiB (0%)
  59. Title                                    : forced sub
  60. Language                                 : English
  61. Default                                  : Yes
  62. Forced                                   : No

  63. Text #2
  64. ID                                       : 4
  65. Format                                   : PGS
  66. Muxing mode                              : zlib
  67. Codec ID                                 : S_HDMV/PGS
  68. Codec ID/Info                            : Picture based subtitle format used on BDs/HD-DVDs
  69. Duration                                 : 1 h 41 min
  70. Bit rate                                 : 9 508 b/s
  71. Count of elements                        : 2040
  72. Stream size                              : 6.87 MiB (0%)
  73. Title                                    : sub
  74. Language                                 : German
  75. Default                                  : No
  76. Forced                                   : No

  77. Menu
  78. 00:00:00.000                             : en:00:00:00.000
  79. 00:10:39.375                             : en:00:10:39.375
  80. 00:21:01.250                             : en:00:21:01.250
  81. 00:29:24.792                             : en:00:29:24.792
  82. 00:40:27.458                             : en:00:40:27.458
  83. 00:49:49.875                             : en:00:49:49.875
  84. 00:59:09.625                             : en:00:59:09.625
  85. 01:10:34.083                             : en:01:10:34.083
  86. 01:20:43.250                             : en:01:20:43.250
  87. 01:28:46.917                             : en:01:28:46.917
复制代码



                                       
                                       

                                       
                                       
                                       




回复

使用道具 举报

懒得打字嘛,点击右侧快捷回复 【右侧内容,后台自定义】
您需要登录后才可以回帖 登录 | 立即加入

本版积分规则

Archiver|小黑屋| 蓝光电影网 |网站地图

Copyright © 2021 Comsenz Inc. Powered by 蓝光电影网

蓝光电影网

本站内容由用户自主分享和转载自互联网,转载目的在于传递更多信息,并不代表本网赞同其观点和对其真实性负责。

如有侵权、违反国家法律政策行为,请联系我们,我们会第一时间及时清除和处理!

举报反馈邮箱:[email protected]

快速回复 返回顶部 返回列表