找回密码

蓝光电影网

查看: 14|回复: 0

[科幻] 秘密 The.Top.Secret.Murder.in.Mind.2016.JAPANESE.1080p.BluRay.x264.DTS-WiKi 15.11GB

[复制链接]
蓝光币
382
发表于 2020-11-4 08:23:10 | 显示全部楼层 |阅读模式


◎译  名 奥秘/The Top Secret/トップ?シークレット/最高机密/奥秘:尸忆缉兇(港)/顶级奥秘
◎片  名 奥秘 THE TOP SECRET
◎年  代 2016
◎产  地 日本
◎类  别 科幻 / 悬疑 / 惊悚
◎语  言 日语
◎上映日期 2016-08-06(日本)
◎IMDb评分  5.4/10 from 232 users
◎IMDb链接  https://www.imdb.com/title/tt4287848/
◎豆瓣评分 5.4/10 from 6907 users
◎豆瓣链接 https://movie.douban.com/subject/26284956/
◎片  长 149分钟
◎导  演 大友启史 Keishi Ohtomo
◎编  剧 清水玲子 Reiko Shimizu / 高桥泉 Izumi Takahashi / 大友启史 Keishi Ohtomo
◎主  演 生田斗真 T?ma Ikuta
       冈田将生 Masaki Okada
       吉川晃司 K?ji Kikkawa
       松坂桃李 T?ri Matsuzaka
       栗山千明 Chiaki Kuriyama
       织田梨沙 Lisa Oda
       椎名桔平 Kippei Shiina
       大森南朋 Nao Omori
       中川雅也 Lily Franky
       平山祐介 Yusuke Hirayama
       木南晴夏 Haruka Kinami
       大仓孝二 Koji Ookura
       前野朋哉 Tomoya Maeno
       岸井雪乃 Yukino Kishii
◎标  签 日本 | 2016 | 悬疑 | 犯罪 | 漫画改编 | 科幻 | 惊悚 | 剧情
◎简  介


  近未来,科学家研发出可以窥测人类脑中天下的MRI扫描器。借助该扫描仪的帮助,警方可以从死者临终前看到的影象中清查线索。名为科学差人研讨所法医第九研讨室的机关,正是应用MRI扫描技术的经营机关。作为“第九”室长的警视正薪 刚(生田斗真 饰),已经见过可谓天堂般的罪犯之脑。这一天,新人研讨员青木一行(冈田将生 饰)被分派到“第九”,他很快就打仗到一桩诡异的案件。某个男人因涉嫌杀戮百口而被判正法刑,薪刚和青木一行对死刑犯露口浩一(椎名桔平 饰)的大脑研讨时意外发现,灭门案中失落的女儿露口绢子(织田梨沙 饰)居然挥舞着芒刃刺向家人。以此为契机,连锁事务接连发生,甚至指向了“第九”的忌讳之地——贝沼事务,当初薪刚的好友铃木(松坂桃李 饰)以生命为贝沼事务画上血淋淋的句号,现在黑暗的奥秘逐步浮出水面……
  
  本片按照清水玲子于1999—2012时代连载的同名漫画改编。
  1. Video
  2. ID                                       : 1
  3. Format                                   : AVC
  4. Format/Info                              : Advanced Video Codec
  5. Format profile                           : [email protected]
  6. Format settings                          : CABAC / 5 Ref Frames
  7. Format settings, CABAC                   : Yes
  8. Format settings, Reference frames        : 5 frames
  9. Codec ID                                 : V_MPEG4/ISO/AVC
  10. Duration                                 : 2 h 29 min
  11. Bit rate                                 : 13.0 Mb/s
  12. Width                                    : 1 920 pixels
  13. Height                                   : 804 pixels
  14. Display aspect ratio                     : 2.40:1
  15. Frame rate mode                          : Constant
  16. Frame rate                               : 23.976 (24000/1001/189150) FPS
  17. Color space                              : YUV
  18. Chroma subsampling                       : 4:2:0
  19. Bit depth                                : 8 bits
  20. Scan type                                : Progressive
  21. Bits/(Pixel*Frame)                       : 0.351
  22. Stream size                              : 13.5 GiB (90%)
  23. Writing library                          : x264 core 142 r2431+42 c69a006 tMod [[email protected] X86_64]
  24. Encoding settings                        : cabac=1 / ref=5 / deblock=1:-3:-3 / analyse=0x3:0x133 / me=umh / subme=11 / psy=1 / fade_compensate=0.00 / psy_rd=1.05:0.05 / mixed_ref=1 / me_range=64 / chroma_me=1 / trellis=2 / 8x8dct=1 / cqm=0 / deadzone=21,11 / fast_pskip=0 / chroma_qp_offset=-1 / threads=12 / lookahead_threads=3 / sliced_threads=0 / nr=0 / decimate=0 / interlaced=0 / bluray_compat=0 / constrained_intra=0 / fgo=0 / bframes=10 / b_pyramid=2 / b_adapt=2 / b_bias=0 / direct=3 / weightb=1 / open_gop=0 / weightp=2 / keyint=250 / keyint_min=23 / scenecut=40 / intra_refresh=0 / rc_lookahead=120 / rc=2pass / mbtree=0 / bitrate=13000 / ratetol=1.0 / qcomp=0.70 / qpmin=0:0:0 / qpmax=69:69:69 / qpstep=4 / cplxblur=20.0 / qblur=0.5 / vbv_maxrate=50000 / vbv_bufsize=50000 / nal_hrd=none / filler=0 / ip_ratio=1.40 / pb_ratio=1.30 / aq=1:0.85 / aq-sensitivity=10.00 / aq-factor=1.00:1.00:1.00 / aq2=0 / aq3=0
  25. Language                                 : Japanese
  26. Default                                  : Yes
  27. Forced                                   : No
  28. Color range                              : Limited
  29. Matrix coefficients                      : BT.709

  30. Audio
  31. ID                                       : 2
  32. Format                                   : DTS
  33. Format/Info                              : Digital Theater Systems
  34. Codec ID                                 : A_DTS
  35. Duration                                 : 2 h 29 min
  36. Bit rate mode                            : Constant
  37. Bit rate                                 : 1 509 kb/s
  38. Channel(s)                               : 6 channels
  39. Channel layout                           : C L R Ls Rs LFE
  40. Sampling rate                            : 48.0 kHz
  41. Frame rate                               : 93.750 FPS (512 SPF)
  42. Bit depth                                : 24 bits
  43. Compression mode                         : Lossy
  44. Stream size                              : 1.57 GiB (10%)
  45. Language                                 : Japanese
  46. Default                                  : Yes
  47. Forced                                   : No

  48. Text #1
  49. ID                                       : 3
  50. Format                                   : UTF-8
  51. Codec ID                                 : S_TEXT/UTF8
  52. Codec ID/Info                            : UTF-8 Plain Text
  53. Duration                                 : 2 h 28 min
  54. Bit rate                                 : 26 b/s
  55. Count of elements                        : 984
  56. Stream size                              : 28.8 KiB (0%)
  57. Language                                 : English
  58. Default                                  : Yes
  59. Forced                                   : No

  60. Text #2
  61. ID                                       : 4
  62. Format                                   : UTF-8
  63. Codec ID                                 : S_TEXT/UTF8
  64. Codec ID/Info                            : UTF-8 Plain Text
  65. Duration                                 : 2 h 21 min
  66. Bit rate                                 : 25 b/s
  67. Count of elements                        : 1074
  68. Stream size                              : 26.4 KiB (0%)
  69. Title                                    : CHS
  70. Language                                 : Chinese
  71. Default                                  : No
  72. Forced                                   : No

  73. Text #3
  74. ID                                       : 5
  75. Format                                   : UTF-8
  76. Codec ID                                 : S_TEXT/UTF8
  77. Codec ID/Info                            : UTF-8 Plain Text
  78. Duration                                 : 2 h 21 min
  79. Bit rate                                 : 25 b/s
  80. Count of elements                        : 1074
  81. Stream size                              : 26.4 KiB (0%)
  82. Title                                    : CHT
  83. Language                                 : Chinese
  84. Default                                  : No
  85. Forced                                   : No

  86. Menu
  87. 00:00:00.000                             : en:00:00:00.000
  88. 00:16:17.059                             : en:00:16:17.059
  89. 00:31:37.604                             : en:00:31:37.604
  90. 00:43:54.423                             : en:00:43:54.423
  91. 00:51:17.866                             : en:00:51:17.866
  92. 01:03:26.177                             : en:01:03:26.177
  93. 01:23:29.630                             : en:01:23:29.630
  94. 01:36:51.723                             : en:01:36:51.723
  95. 01:47:20.768                             : en:01:47:20.768
  96. 02:01:45.590                             : en:02:01:45.590
  97. 02:15:46.138                             : en:02:15:46.138
  98. 02:24:39.671                             : en:02:24:39.671
复制代码






                                       
                                       

                                       
                                       
                                       




回复

使用道具 举报

懒得打字嘛,点击右侧快捷回复 【右侧内容,后台自定义】
您需要登录后才可以回帖 登录 | 立即加入

本版积分规则

Archiver|小黑屋| 蓝光电影网 |网站地图

Copyright © 2021 Comsenz Inc. Powered by 蓝光电影网

蓝光电影网

本站内容由用户自主分享和转载自互联网,转载目的在于传递更多信息,并不代表本网赞同其观点和对其真实性负责。

如有侵权、违反国家法律政策行为,请联系我们,我们会第一时间及时清除和处理!

举报反馈邮箱:[email protected]

快速回复 返回顶部 返回列表