找回密码

蓝光电影网

查看: 14|回复: 0

[惊悚] 树林深处 Deep.in.the.Wood.2015.720p.BluRay.x264-YAMG 2.93GB

[复制链接]
蓝光币
382
发表于 2021-6-12 12:20:22 | 显示全部楼层 |阅读模式


◎译  名 树林深处
◎片  名 In fondo al bosco
◎年  代 2015
◎产  地 意大利
◎类  别 惊悚
◎语  言 意大利语
◎上映日期 2015-11-19(意大利)
◎豆瓣评分 /10 from 0 users
◎豆瓣链接 https://movie.douban.com/subject/26747364/
◎片  长 88分钟
◎导  演 斯特凡诺·洛维奇 Stefano Lodovichi
◎标  签 意大利 | 悬疑 | 惊悚 | 意大利电影 | 的 | 反转 | 2015
◎简  介


  Winter 2010. Dolomites. Tommaso Conci, a 4 year old child, disappears during a festival where people disguised as devils, the Krampus, terrorize the village with whips and chains. Five years later, a child was found nameless and without documents. DNA matches: he is Tommi. Manuel, the father, can finally embrace his son. The mother, Linda, however, can not adapt to the new situation. A suspect digs inside her: what if that child is not really her son?
  1. Video
  2. ID                                       : 1
  3. Format                                   : AVC
  4. Format/Info                              : Advanced Video Codec
  5. Format profile                           : [email protected]
  6. Format settings                          : CABAC / 12 Ref Frames
  7. Format settings, CABAC                   : Yes
  8. Format settings, Reference frames        : 12 frames
  9. Codec ID                                 : V_MPEG4/ISO/AVC
  10. Duration                                 : 1 h 29 min
  11. Bit rate                                 : 4 063 kb/s
  12. Width                                    : 1 280 pixels
  13. Height                                   : 538 pixels
  14. Display aspect ratio                     : 2.40:1
  15. Frame rate mode                          : Constant
  16. Frame rate                               : 25.000 FPS
  17. Color space                              : YUV
  18. Chroma subsampling                       : 4:2:0
  19. Bit depth                                : 8 bits
  20. Scan type                                : Progressive
  21. Bits/(Pixel*Frame)                       : 0.236
  22. Stream size                              : 2.53 GiB (86%)
  23. Writing library                          : x264 core 161 r3053 c347e7a
  24. Encoding settings                        : cabac=1 / ref=12 / deblock=1:-3:-3 / analyse=0x3:0x133 / me=umh / subme=10 / psy=1 / psy_rd=1.00:0.00 / mixed_ref=1 / me_range=32 / chroma_me=1 / trellis=2 / 8x8dct=1 / cqm=0 / deadzone=21,11 / fast_pskip=0 / chroma_qp_offset=-2 / threads=17 / lookahead_threads=2 / sliced_threads=0 / nr=0 / decimate=0 / interlaced=0 / bluray_compat=0 / constrained_intra=0 / bframes=8 / b_pyramid=2 / b_adapt=2 / b_bias=0 / direct=3 / weightb=1 / open_gop=0 / weightp=2 / keyint=250 / keyint_min=25 / scenecut=40 / intra_refresh=0 / rc=crf / mbtree=0 / crf=17.0 / qcomp=0.60 / qpmin=0 / qpmax=69 / qpstep=4 / ip_ratio=1.40 / pb_ratio=1.30 / aq=3:0.60
  25. Language                                 : English
  26. Default                                  : Yes
  27. Forced                                   : No
  28. Color range                              : Limited
  29. Matrix coefficients                      : BT.709

  30. Audio
  31. ID                                       : 2
  32. Format                                   : AC-3
  33. Format/Info                              : Audio Coding 3
  34. Commercial name                          : Dolby Digital
  35. Codec ID                                 : A_AC3
  36. Duration                                 : 1 h 29 min
  37. Bit rate mode                            : Constant
  38. Bit rate                                 : 640 kb/s
  39. Channel(s)                               : 6 channels
  40. Channel layout                           : L R C LFE Ls Rs
  41. Sampling rate                            : 48.0 kHz
  42. Frame rate                               : 31.250 FPS (1536 SPF)
  43. Compression mode                         : Lossy
  44. Stream size                              : 408 MiB (14%)
  45. Title                                    : Italian
  46. Language                                 : Italian
  47. Service kind                             : Complete Main
  48. Default                                  : Yes
  49. Forced                                   : No

  50. Text #1
  51. ID                                       : 3
  52. Format                                   : UTF-8
  53. Codec ID                                 : S_TEXT/UTF8
  54. Codec ID/Info                            : UTF-8 Plain Text
  55. Duration                                 : 1 h 24 min
  56. Bit rate                                 : 24 b/s
  57. Count of elements                        : 604
  58. Stream size                              : 15.4 KiB (0%)
  59. Title                                    : English Forced
  60. Language                                 : English
  61. Default                                  : Yes
  62. Forced                                   : Yes

  63. Text #2
  64. ID                                       : 4
  65. Format                                   : UTF-8
  66. Codec ID                                 : S_TEXT/UTF8
  67. Codec ID/Info                            : UTF-8 Plain Text
  68. Duration                                 : 1 h 24 min
  69. Bit rate                                 : 28 b/s
  70. Count of elements                        : 557
  71. Stream size                              : 17.6 KiB (0%)
  72. Title                                    : French
  73. Language                                 : French
  74. Default                                  : No
  75. Forced                                   : No
复制代码





                                       
                                       

                                       
                                       
                                       




回复

使用道具 举报

懒得打字嘛,点击右侧快捷回复 【右侧内容,后台自定义】
您需要登录后才可以回帖 登录 | 立即加入

本版积分规则

Archiver|小黑屋| 蓝光电影网 |网站地图

Copyright © 2021 Comsenz Inc. Powered by 蓝光电影网

蓝光电影网

本站内容由用户自主分享和转载自互联网,转载目的在于传递更多信息,并不代表本网赞同其观点和对其真实性负责。

如有侵权、违反国家法律政策行为,请联系我们,我们会第一时间及时清除和处理!

举报反馈邮箱:[email protected]

快速回复 返回顶部 返回列表