找回密码

蓝光电影网

查看: 23|回复: 0

[动作] 爆裂都市 Burst.City.1982.720p.BluRay.x264-BiPOLAR 8.32GB

[复制链接]
蓝光币
426
发表于 2020-11-27 09:03:34 | 显示全部楼层 |阅读模式


◎译  名 Bakuretsu toshi/Burst City
◎片  名 爆裂都会
◎年  代 1982
◎产  地 日本
◎类  别 行动 / 科幻 / 音乐
◎语  言 日语
◎上映日期 1982-03-13
◎IMDb评分  6.1/10 from 527 users
◎IMDb链接  https://www.imdb.com/title/tt0083609/
◎豆瓣评分 7.0/10 from 132 users
◎豆瓣链接 https://movie.douban.com/subject/1460914/
◎导  演 石井岳龙 Gakury? Ishii
◎编  剧 石井岳龙 Gakury? Ishii
◎主  演 阵内孝则 Takanori Jinnai
       泉谷茂 Shigeru Izumiya
       町田康 Kou Machida
       Michirou Endo
       磨赤儿 Akaji Maro
       室井滋 Shigeru Muroi
       Shinya Ohe
◎标  签 日本 | Cult | 石井聪互 | 朋克 | 日本电影 | 暴力 | 赛博朋克 | 石井聪
◎简  介


  荒凉的未来天下里,朋克青年与地层劳工用音乐和暴力匹敌黑社会地产商和差人。
  1. Video
  2. ID                                       : 1
  3. Format                                   : AVC
  4. Format/Info                              : Advanced Video Codec
  5. Format profile                           : [email protected]
  6. Format settings                          : CABAC / 9 Ref Frames
  7. Format settings, CABAC                   : Yes
  8. Format settings, Reference frames        : 9 frames
  9. Codec ID                                 : V_MPEG4/ISO/AVC
  10. Duration                                 : 1 h 56 min
  11. Bit rate                                 : 9 467 kb/s
  12. Width                                    : 1 280 pixels
  13. Height                                   : 692 pixels
  14. Display aspect ratio                     : 1.85:1
  15. Frame rate mode                          : Constant
  16. Frame rate                               : 23.976 (24000/1001/189150) FPS
  17. Color space                              : YUV
  18. Chroma subsampling                       : 4:2:0
  19. Bit depth                                : 8 bits
  20. Scan type                                : Progressive
  21. Bits/(Pixel*Frame)                       : 0.446
  22. Stream size                              : 7.70 GiB (93%)
  23. Writing library                          : x264 core 161 r3027 4121277
  24. Encoding settings                        : cabac=1 / ref=9 / deblock=1:-3:-3 / analyse=0x3:0x133 / me=umh / subme=10 / psy=1 / psy_rd=1.00:0.15 / mixed_ref=1 / me_range=24 / chroma_me=1 / trellis=2 / 8x8dct=1 / cqm=0 / deadzone=21,11 / fast_pskip=1 / chroma_qp_offset=-3 / threads=18 / lookahead_threads=3 / sliced_threads=0 / nr=0 / decimate=1 / interlaced=0 / bluray_compat=0 / constrained_intra=0 / bframes=8 / b_pyramid=2 / b_adapt=2 / b_bias=0 / direct=3 / weightb=1 / open_gop=0 / weightp=2 / keyint=250 / keyint_min=23 / scenecut=40 / intra_refresh=0 / rc_lookahead=60 / rc=crf / mbtree=1 / crf=20.0 / qcomp=0.60 / qpmin=0 / qpmax=69 / qpstep=4 / ip_ratio=1.40 / aq=3:0.50
  25. Language                                 : English
  26. Default                                  : Yes
  27. Forced                                   : No
  28. Color range                              : Limited
  29. Matrix coefficients                      : BT.709

  30. Audio #1
  31. ID                                       : 2
  32. Format                                   : FLAC
  33. Format/Info                              : Free Lossless Audio Codec
  34. Codec ID                                 : A_FLAC
  35. Duration                                 : 1 h 56 min
  36. Bit rate mode                            : Variable
  37. Bit rate                                 : 654 kb/s
  38. Channel(s)                               : 1 channel
  39. Channel layout                           : C
  40. Sampling rate                            : 48.0 kHz
  41. Frame rate                               : 11.719 FPS (4096 SPF)
  42. Bit depth                                : 24 bits
  43. Compression mode                         : Lossless
  44. Stream size                              : 544 MiB (6%)
  45. Writing library                          : libFLAC 1.2.1 (UTC 2007-09-17)
  46. Language                                 : Japanese
  47. Default                                  : Yes
  48. Forced                                   : No

  49. Audio #2
  50. ID                                       : 3
  51. Format                                   : AAC LC
  52. Format/Info                              : Advanced Audio Codec Low Complexity
  53. Codec ID                                 : A_AAC-2
  54. Duration                                 : 1 h 56 min
  55. Bit rate                                 : 98.2 kb/s
  56. Channel(s)                               : 2 channels
  57. Channel layout                           : L R
  58. Sampling rate                            : 48.0 kHz
  59. Frame rate                               : 46.875 FPS (1024 SPF)
  60. Compression mode                         : Lossy
  61. Delay relative to video                  : 9 ms
  62. Stream size                              : 81.8 MiB (1%)
  63. Title                                    : English Commentary by Tom Mes
  64. Language                                 : English
  65. Default                                  : No
  66. Forced                                   : No

  67. Text #1
  68. ID                                       : 4
  69. Format                                   : UTF-8
  70. Codec ID                                 : S_TEXT/UTF8
  71. Codec ID/Info                            : UTF-8 Plain Text
  72. Duration                                 : 1 h 54 min
  73. Bit rate                                 : 21 b/s
  74. Count of elements                        : 560
  75. Stream size                              : 18.4 KiB (0%)
  76. Title                                    : English
  77. Language                                 : English
  78. Default                                  : Yes
  79. Forced                                   : Yes

  80. Text #2
  81. ID                                       : 5
  82. Format                                   : PGS
  83. Muxing mode                              : zlib
  84. Codec ID                                 : S_HDMV/PGS
  85. Codec ID/Info                            : Picture based subtitle format used on BDs/HD-DVDs
  86. Duration                                 : 1 h 54 min
  87. Bit rate                                 : 3 899 b/s
  88. Count of elements                        : 1120
  89. Stream size                              : 3.18 MiB (0%)
  90. Title                                    : English
  91. Language                                 : English
  92. Default                                  : No
  93. Forced                                   : No

  94. Menu
  95. 00:00:00.000                             : en:00:00:00.000
  96. 00:09:43.583                             : en:00:09:43.583
  97. 00:18:58.763                             : en:00:18:58.763
  98. 00:30:18.108                             : en:00:30:18.108
  99. 00:37:53.229                             : en:00:37:53.229
  100. 00:47:28.971                             : en:00:47:28.971
  101. 00:57:34.660                             : en:00:57:34.660
  102. 01:05:52.282                             : en:01:05:52.282
  103. 01:14:48.693                             : en:01:14:48.693
  104. 01:25:17.237                             : en:01:25:17.237
  105. 01:37:06.154                             : en:01:37:06.154
  106. 01:47:29.902                             : en:01:47:29.902
复制代码




                                       
                                       

                                       
                                       
                                       




回复

使用道具 举报

懒得打字嘛,点击右侧快捷回复 【右侧内容,后台自定义】
您需要登录后才可以回帖 登录 | 立即加入

本版积分规则

Archiver|小黑屋| 蓝光电影网 |网站地图

Copyright © 2021 Comsenz Inc. Powered by 蓝光电影网

蓝光电影网

本站内容由用户自主分享和转载自互联网,转载目的在于传递更多信息,并不代表本网赞同其观点和对其真实性负责。

如有侵权、违反国家法律政策行为,请联系我们,我们会第一时间及时清除和处理!

举报反馈邮箱:[email protected]

快速回复 返回顶部 返回列表