找回密码

蓝光电影网

查看: 9|回复: 0

[喜剧] 蠢蛋搞怪秀4.5:坏外公 Jackass.Presents.Bad.Grandpa.0.5.2014.1080p.BluRay.x264-USURY 6.56GB

[复制链接]
蓝光币
382
发表于 2020-8-18 10:23:04 | 显示全部楼层 |阅读模式


◎译  名 蠢蛋搞怪秀4.5:坏外公 / Jackass Presents: Bad Grandpa .5
◎片  名 Jackass Presents: Bad Grandpa .5
◎年  代 2014
◎产  地 美国
◎类  别 笑剧
◎语  言 英语
◎IMDb评分  6.3/10 from 4155 users
◎IMDb链接  https://www.imdb.com/title/tt3766424
◎豆瓣评分 6.5/10 from 97 users
◎豆瓣链接 https://movie.douban.com/subject/25899884/
◎片  长 86分钟
◎主  演 约翰尼·诺克斯维尔

◎标  签 美国 | 笑剧 | 恶搞 | 搞笑 | 美国电影 | 电影 | comedy | 2014
◎简  介

  
  Bad Grandpa .5 gives you a whole new perspective on the world of Irving Zisman with bonus scenes and pranks also featuring Spike Jonze as "Gloria" and Catherine Keener as Irving's wife "Ellie", plus a look at the evolution of Johnny Knoxville's naughty alter-ego, the makeup effects,
  1. Video
  2. ID                                       : 1
  3. Format                                   : AVC
  4. Format/Info                              : Advanced Video Codec
  5. Format profile                           : [email protected]
  6. Format settings                          : CABAC / 4 Ref Frames
  7. Format settings, CABAC                   : Yes
  8. Format settings, Reference frames        : 4 frames
  9. Codec ID                                 : V_MPEG4/ISO/AVC
  10. Duration                                 : 1 h 26 min
  11. Bit rate                                 : 9 365 kb/s
  12. Width                                    : 1 920 pixels
  13. Height                                   : 1 080 pixels
  14. Display aspect ratio                     : 16:9
  15. Frame rate mode                          : Constant
  16. Frame rate                               : 23.976 (24000/1001/189150) FPS
  17. Color space                              : YUV
  18. Chroma subsampling                       : 4:2:0
  19. Bit depth                                : 8 bits
  20. Scan type                                : Progressive
  21. Bits/(Pixel*Frame)                       : 0.188
  22. Stream size                              : 5.52 GiB (84%)
  23. Writing library                          : x264 core 142 r2453 ea0ca51
  24. Encoding settings                        : cabac=1 / ref=4 / deblock=1:0:0 / analyse=0x3:0x133 / me=umh / subme=7 / psy=1 / psy_rd=1.00:0.00 / mixed_ref=1 / me_range=16 / chroma_me=1 / trellis=1 / 8x8dct=1 / cqm=0 / deadzone=21,11 / fast_pskip=0 / chroma_qp_offset=-2 / threads=6 / lookahead_threads=1 / sliced_threads=0 / nr=0 / decimate=1 / interlaced=0 / bluray_compat=0 / constrained_intra=0 / bframes=3 / b_pyramid=2 / b_adapt=2 / b_bias=0 / direct=3 / weightb=1 / open_gop=0 / weightp=2 / keyint=240 / keyint_min=23 / scenecut=40 / intra_refresh=0 / rc_lookahead=50 / rc=2pass / mbtree=1 / bitrate=9365 / ratetol=1.0 / qcomp=0.60 / qpmin=0 / qpmax=69 / qpstep=4 / cplxblur=20.0 / qblur=0.5 / ip_ratio=1.40 / aq=1:1.00
  25. Language                                 : English
  26. Default                                  : Yes
  27. Forced                                   : No

  28. Audio
  29. ID                                       : 2
  30. Format                                   : DTS
  31. Format/Info                              : Digital Theater Systems
  32. Codec ID                                 : A_DTS
  33. Duration                                 : 1 h 26 min
  34. Bit rate mode                            : Constant
  35. Bit rate                                 : 1 509 kb/s
  36. Channel(s)                               : 6 channels
  37. Channel layout                           : C L R Ls Rs LFE
  38. Sampling rate                            : 48.0 kHz
  39. Frame rate                               : 93.750 FPS (512 SPF)
  40. Bit depth                                : 24 bits
  41. Compression mode                         : Lossy
  42. Stream size                              : 931 MiB (14%)
  43. Language                                 : English
  44. Default                                  : Yes
  45. Forced                                   : No

  46. Text
  47. ID                                       : 3
  48. Format                                   : UTF-8
  49. Codec ID                                 : S_TEXT/UTF8
  50. Codec ID/Info                            : UTF-8 Plain Text
  51. Language                                 : English
  52. Default                                  : Yes
  53. Forced                                   : Yes

  54. Menu
  55. 00:00:00.000                             : :00:00:00.000
  56. 00:01:48.442                             : :00:01:48.442
  57. 00:09:35.533                             : :00:09:35.533
  58. 00:16:47.381                             : :00:16:47.381
  59. 00:20:31.439                             : :00:20:31.439
  60. 00:27:09.545                             : :00:27:09.545
  61. 00:36:27.352                             : :00:36:27.352
  62. 00:41:47.505                             : :00:41:47.505
  63. 00:51:08.315                             : :00:51:08.315
  64. 00:57:17.934                             : :00:57:17.934
  65. 01:09:35.380                             : :01:09:35.380
  66. 01:20:31.118                             : :01:20:31.118
复制代码









                                       
                                       

                                       
                                       
                                       




回复

使用道具 举报

懒得打字嘛,点击右侧快捷回复 【右侧内容,后台自定义】
您需要登录后才可以回帖 登录 | 立即加入

本版积分规则

Archiver|小黑屋| 蓝光电影网 |网站地图

Copyright © 2021 Comsenz Inc. Powered by 蓝光电影网

蓝光电影网

本站内容由用户自主分享和转载自互联网,转载目的在于传递更多信息,并不代表本网赞同其观点和对其真实性负责。

如有侵权、违反国家法律政策行为,请联系我们,我们会第一时间及时清除和处理!

举报反馈邮箱:[email protected]

快速回复 返回顶部 返回列表