找回密码

蓝光电影网

查看: 40|回复: 0

[动作] 金燕子 Golden.Swallow.1968.720p.BluRay.x264-BiPOLAR 5.18GB

[复制链接]
蓝光币
515
发表于 2020-11-27 09:01:34 | 显示全部楼层 |阅读模式


◎译  名 The Golden Swallow
◎片  名 金燕子
◎年  代 1968
◎产  地 中国香港
◎类  别 行动 / 恋爱 / 冒险 / 武侠 / 古装
◎语  言 汉语普通话
◎上映日期 1968-04-03
◎IMDb评分  6.8/10 from 634 users
◎IMDb链接  https://www.imdb.com/title/tt0063105/
◎豆瓣评分 6.7/10 from 1242 users
◎豆瓣链接 https://movie.douban.com/subject/1307957/
◎片  长 89 分钟
◎导  演 张彻 Cheh Chang
◎编  剧 张彻 Cheh Chang / 杜云之 Yun Chih Tu
◎主  演 郑佩佩 Pei-pei Cheng
       罗烈 Lieh Lo
       邓祥 Tang Cheung
       杨柏尘 Pak-Chan Yeung
       黎恩 Lai Yan
       徐松鹤 Sung-Hao Hsu
       黄梅 Wong Mei
       白妤 Yu Pai
       卢慧 Lo Wai
       王青 Ching Wong
       王光裕 Kuang Yu Wang
       伍元勋 Ng Yuen-Fan
       杜文波 Wenpo Tu
       黄青云 Wong Ching-Wan
       何柏光 Pak-Kwong Ho
       闵敏 Man Man
       唐佳 Chia Tang
       井淼 Miao Ching
       谷峰 Feng Ku
       午马 Wu Ma
       杨志卿 Chih-Ching Yang
       赵心妍 Hsin Yen Chao
       刘家荣 Chia Yung Liu
       袁祥仁 Cheung-Yan Yuen
       刘家良 Kar-Leung Lau
       谭宝 Bo Tam
       王羽 Yu Wang
◎标  签 张彻 | 邵氏 | 香港 | 武侠 | 郑佩佩 | 王羽 | 香港电影 | 罗烈
◎简  介


  白衣大侠银鹏(王羽)自幼身种仇火,虽行侠仗义却心慈手软,一向自负的他对包括一心爱他的名妓媚娘在内的女人都很冷酷,只痴情于师姐金燕子(郑佩佩),为求见她一面,每次杀人以后,他皆用“金燕镖”留记,希望藉此逼金燕子现身。痴迷金燕子的还有黑色醉侠韩滔(罗烈),两报酬了金燕子经常发生争斗。面临一个有情一个有义的两位好男儿,金燕子迟迟下不了决心该选谁舍谁。
  
  金燕子失慎被金龙会抓去,为救她,银鹏杀死金龙会总舵主王雄,并与其数十手下展开苦战,可谓拼尽尽力,韩滔却只是冷眼旁观不施援手。金燕子的挑选似乎已有成果,但工作并不是非A即B这么简单。
  1. Video
  2. ID                                       : 1
  3. Format                                   : AVC
  4. Format/Info                              : Advanced Video Codec
  5. Format profile                           : [email protected]
  6. Format settings                          : CABAC / 12 Ref Frames
  7. Format settings, CABAC                   : Yes
  8. Format settings, Reference frames        : 12 frames
  9. Codec ID                                 : V_MPEG4/ISO/AVC
  10. Duration                                 : 1 h 48 min
  11. Bit rate                                 : 6 384 kb/s
  12. Width                                    : 1 280 pixels
  13. Height                                   : 532 pixels
  14. Display aspect ratio                     : 2.40:1
  15. Frame rate mode                          : Constant
  16. Frame rate                               : 23.976 (24000/1001/189150) FPS
  17. Color space                              : YUV
  18. Chroma subsampling                       : 4:2:0
  19. Bit depth                                : 8 bits
  20. Scan type                                : Progressive
  21. Bits/(Pixel*Frame)                       : 0.391
  22. Stream size                              : 4.84 GiB (93%)
  23. Writing library                          : x264 core 161 r3027 4121277
  24. Encoding settings                        : cabac=1 / ref=12 / deblock=1:-3:-3 / analyse=0x3:0x133 / me=umh / subme=10 / psy=1 / psy_rd=1.00:0.15 / mixed_ref=1 / me_range=24 / chroma_me=1 / trellis=2 / 8x8dct=1 / cqm=0 / deadzone=21,11 / fast_pskip=1 / chroma_qp_offset=-3 / threads=17 / lookahead_threads=2 / sliced_threads=0 / nr=0 / decimate=1 / interlaced=0 / bluray_compat=0 / constrained_intra=0 / bframes=8 / b_pyramid=2 / b_adapt=2 / b_bias=0 / direct=3 / weightb=1 / open_gop=0 / weightp=2 / keyint=250 / keyint_min=23 / scenecut=40 / intra_refresh=0 / rc_lookahead=60 / rc=crf / mbtree=1 / crf=14.0 / qcomp=0.60 / qpmin=0 / qpmax=69 / qpstep=4 / ip_ratio=1.40 / aq=3:0.50
  25. Language                                 : English
  26. Default                                  : Yes
  27. Forced                                   : No
  28. Color range                              : Limited
  29. Matrix coefficients                      : BT.709

  30. Audio
  31. ID                                       : 2
  32. Format                                   : FLAC
  33. Format/Info                              : Free Lossless Audio Codec
  34. Codec ID                                 : A_FLAC
  35. Duration                                 : 1 h 48 min
  36. Bit rate mode                            : Variable
  37. Bit rate                                 : 432 kb/s
  38. Channel(s)                               : 2 channels
  39. Channel layout                           : L R
  40. Sampling rate                            : 48.0 kHz
  41. Frame rate                               : 11.719 FPS (4096 SPF)
  42. Bit depth                                : 16 bits
  43. Compression mode                         : Lossless
  44. Stream size                              : 336 MiB (6%)
  45. Title                                    : Mandarin
  46. Writing library                          : libFLAC 1.2.1 (UTC 2007-09-17)
  47. Language                                 : Chinese
  48. Default                                  : Yes
  49. Forced                                   : No

  50. Text #1
  51. ID                                       : 3
  52. Format                                   : UTF-8
  53. Codec ID                                 : S_TEXT/UTF8
  54. Codec ID/Info                            : UTF-8 Plain Text
  55. Duration                                 : 1 h 46 min
  56. Bit rate                                 : 23 b/s
  57. Count of elements                        : 744
  58. Stream size                              : 18.6 KiB (0%)
  59. Title                                    : English
  60. Language                                 : English
  61. Default                                  : Yes
  62. Forced                                   : Yes

  63. Text #2
  64. ID                                       : 4
  65. Format                                   : PGS
  66. Muxing mode                              : zlib
  67. Codec ID                                 : S_HDMV/PGS
  68. Codec ID/Info                            : Picture based subtitle format used on BDs/HD-DVDs
  69. Duration                                 : 1 h 47 min
  70. Bit rate                                 : 14.3 kb/s
  71. Count of elements                        : 2309
  72. Stream size                              : 10.9 MiB (0%)
  73. Title                                    : Japanese
  74. Language                                 : Japanese
  75. Default                                  : No
  76. Forced                                   : No

  77. Menu
  78. 00:00:00.000                             : en:00:00:00.000
  79. 00:02:46.541                             : en:00:02:46.541
  80. 00:03:58.572                             : en:00:03:58.572
  81. 00:09:33.823                             : en:00:09:33.823
  82. 00:13:39.235                             : en:00:13:39.235
  83. 00:16:10.469                             : en:00:16:10.469
  84. 00:23:12.641                             : en:00:23:12.641
  85. 00:26:06.940                             : en:00:26:06.940
  86. 00:30:09.975                             : en:00:30:09.975
  87. 00:37:35.753                             : en:00:37:35.753
  88. 00:41:15.640                             : en:00:41:15.640
  89. 00:46:49.140                             : en:00:46:49.140
  90. 00:54:14.168                             : en:00:54:14.168
  91. 00:56:11.660                             : en:00:56:11.660
  92. 01:03:40.108                             : en:01:03:40.108
  93. 01:07:27.460                             : en:01:07:27.460
  94. 01:10:07.578                             : en:01:10:07.578
  95. 01:14:25.336                             : en:01:14:25.336
  96. 01:17:25.558                             : en:01:17:25.558
  97. 01:27:01.925                             : en:01:27:01.925
  98. 01:28:54.496                             : en:01:28:54.496
  99. 01:34:48.558                             : en:01:34:48.558
  100. 01:42:07.621                             : en:01:42:07.621
  101. 01:46:05.734                             : en:01:46:05.734
  102. 01:48:06.814                             : en:01:48:06.814
  103. 01:48:32.256                             : en:01:48:32.256
复制代码




                                       
                                       

                                       
                                       
                                       




回复

使用道具 举报

懒得打字嘛,点击右侧快捷回复 【右侧内容,后台自定义】
您需要登录后才可以回帖 登录 | 立即加入

本版积分规则

Archiver|小黑屋| 蓝光电影网 |网站地图

Copyright © 2021 Comsenz Inc. Powered by 蓝光电影网

蓝光电影网

本站内容由用户自主分享和转载自互联网,转载目的在于传递更多信息,并不代表本网赞同其观点和对其真实性负责。

如有侵权、违反国家法律政策行为,请联系我们,我们会第一时间及时清除和处理!

举报反馈邮箱:[email protected]

快速回复 返回顶部 返回列表