找回密码

蓝光电影网

查看: 28|回复: 0

[惊悚] 谎言之城 City.of.Lies.2018.720p.BluRay.x264-PiGNUS 5.05GB

[复制链接]
蓝光币
426
发表于 2021-6-11 11:58:39 | 显示全部楼层 |阅读模式


◎译  名 假话之城/LAbyrinth/谁杀了大个子(台)/迷宫
◎片  名 City of Lies
◎年  代 2018
◎产  地 英国,美国
◎类  别 惊悚 / 列传 / 犯罪
◎语  言 英语,西班牙语
◎上映日期 2018-12-08(意大利纽尔电影节) / 2021-03-19(美国)
◎豆瓣评分 7.0/10 from 995 users
◎豆瓣链接 https://movie.douban.com/subject/26916153/
◎片  长 112分钟
◎导  演 布拉德·福尔曼 Brad Furman
◎编  剧 兰德尔·沙利文 Randall Sullivan / 克里斯蒂安·孔特雷拉斯 Christian Contreras
◎主  演 约翰尼·德普 Johnny Depp
       福里斯特·惠特克 Forest Whitaker
       托比·哈斯 Toby Huss
       戴顿·考利 Dayton Callie
       小尼尔·布朗 Neil Brown Jr.
       路易斯·赫特哈姆 Louis Herthum
       谢伊·惠格姆 Shea Whigham
       山德·贝克利 Xander Berkeley
       沙米尔·安德森 Shamier Anderson
       劳伦斯·梅森 Laurence Mason
       克里斯蒂安·乔治 Christian George
       迈克尔·帕尔 Michael Paré
       阿明·约瑟夫 Amin Joseph
       乔什·哈德威克 Josh Hardwick
       格伦·普拉默 Glenn Plummer
       基斯·斯扎拉巴基克 Keith Szarabajka
       安格拉·戈茨 Angela Gots
       洛克蒙·邓巴 Rockmond Dunbar
       彼得·格林纳 Peter Greene
       维恩·埃维雷特 Wynn Everett
       范·埃佩尔森 Van Epperson
       凯文·查普曼 Kevin Chapman
       哈维尔·格拉杰达 Javier Grajeda
       吉姆·戴佛提 Jim Devoti
       奥巴·巴巴图德 Obba Babatundé
       普莱德·格林 Pride Grinn
       约瑟夫·费兰特 Joseph Ferrante
       丹尼斯迪普 Dennis Depew
       贾马尔·伍拉德 Jamal Woolard
       科里·哈德里克 Cory Hardrict
       克里斯托弗·艾伯 Christopher Aber
       克里斯·贾伊·阿历克斯 Chris Jai Alex
       阿什莉·比勒 Ashleigh Biller
       里安·比托普 Rian Bishop
       尼雅迪恩 Nea Dune
       弗雷德里克·基夫 Frederick Keeve
       布兰顿·莫拉勒 Brandon Molale
       梁心羽 Jiaoying Liang
       雅各布·泰勒 Jacob Taylor
       Marion 'Suge' Knight
       詹妮弗·拉马尔 Jennifer Lamar
       雷·梅伦德斯 Ray Melendez
       The Notorious B.I.G.
       图派克·夏库尔 Tupac Shakur
       达里恩·希利斯-埃文斯 Darien Sills-Evans
       史努比狗狗 Snoop Dogg
◎标  签 犯罪 | 剧情 | 美国 | 2018 | 实在事务改编 | 列传 | 英国 | 悬疑
◎简  介


  改编自实在悬案,美国工具岸两大嘻哈教主申明散乱师长及图帕克在音乐上激发工具岸的斗争,两人接连被枪杀身亡,一向没有成功破案,让他们更成为传奇人物。追踪此案 20 年的差人(约翰尼·德普饰)遇上了一个想拯救奇迹危机的记者(福里斯特·惠特克 饰),二人决议联手找出命案真相,观察的进程中揭发了法律机官的假话和受贿行为......
  1. Video
  2. ID                                       : 1
  3. Format                                   : AVC
  4. Format/Info                              : Advanced Video Codec
  5. Format profile                           : [email protected]
  6. Format settings                          : CABAC / 8 Ref Frames
  7. Format settings, CABAC                   : Yes
  8. Format settings, Reference frames        : 8 frames
  9. Codec ID                                 : V_MPEG4/ISO/AVC
  10. Duration                                 : 1 h 51 min
  11. Bit rate                                 : 5 660 kb/s
  12. Width                                    : 1 280 pixels
  13. Height                                   : 536 pixels
  14. Display aspect ratio                     : 2.40:1
  15. Frame rate mode                          : Constant
  16. Frame rate                               : 23.976 (24000/1001/189150) FPS
  17. Color space                              : YUV
  18. Chroma subsampling                       : 4:2:0
  19. Bit depth                                : 8 bits
  20. Scan type                                : Progressive
  21. Bits/(Pixel*Frame)                       : 0.344
  22. Stream size                              : 4.42 GiB (88%)
  23. Writing library                          : x264 core 163 r3059 b684ebe
  24. Encoding settings                        : cabac=1 / ref=8 / deblock=1:-3:-3 / analyse=0x3:0x133 / me=umh / subme=9 / psy=1 / psy_rd=1.00:0.00 / mixed_ref=1 / me_range=16 / chroma_me=1 / trellis=2 / 8x8dct=1 / cqm=0 / deadzone=21,11 / fast_pskip=1 / chroma_qp_offset=-2 / threads=17 / lookahead_threads=1 / sliced_threads=0 / nr=0 / decimate=1 / interlaced=0 / bluray_compat=0 / constrained_intra=0 / bframes=3 / b_pyramid=2 / b_adapt=2 / b_bias=0 / direct=3 / weightb=1 / open_gop=0 / weightp=2 / keyint=250 / keyint_min=23 / scenecut=40 / intra_refresh=0 / rc_lookahead=60 / rc=crf / mbtree=1 / crf=15.0 / qcomp=0.60 / qpmin=0 / qpmax=69 / qpstep=4 / ip_ratio=1.40 / aq=1:1.00
  25. Default                                  : Yes
  26. Forced                                   : No

  27. Audio #1
  28. ID                                       : 2
  29. Format                                   : AC-3
  30. Format/Info                              : Audio Coding 3
  31. Commercial name                          : Dolby Digital
  32. Codec ID                                 : A_AC3
  33. Duration                                 : 1 h 51 min
  34. Bit rate mode                            : Constant
  35. Bit rate                                 : 640 kb/s
  36. Channel(s)                               : 6 channels
  37. Channel layout                           : L R C LFE Ls Rs
  38. Sampling rate                            : 48.0 kHz
  39. Frame rate                               : 31.250 FPS (1536 SPF)
  40. Compression mode                         : Lossy
  41. Stream size                              : 512 MiB (10%)
  42. Language                                 : English
  43. Service kind                             : Complete Main
  44. Default                                  : Yes
  45. Forced                                   : No

  46. Audio #2
  47. ID                                       : 3
  48. Format                                   : AAC LC
  49. Format/Info                              : Advanced Audio Codec Low Complexity
  50. Codec ID                                 : A_AAC-2
  51. Duration                                 : 1 h 51 min
  52. Bit rate                                 : 107 kb/s
  53. Channel(s)                               : 2 channels
  54. Channel layout                           : L R
  55. Sampling rate                            : 48.0 kHz
  56. Frame rate                               : 46.875 FPS (1024 SPF)
  57. Compression mode                         : Lossy
  58. Delay relative to video                  : 9 ms
  59. Stream size                              : 85.4 MiB (2%)
  60. Title                                    : Commentary
  61. Language                                 : English
  62. Default                                  : No
  63. Forced                                   : No

  64. Text #1
  65. ID                                       : 4
  66. Format                                   : PGS
  67. Muxing mode                              : zlib
  68. Codec ID                                 : S_HDMV/PGS
  69. Codec ID/Info                            : Picture based subtitle format used on BDs/HD-DVDs
  70. Duration                                 : 1 h 49 min
  71. Bit rate                                 : 49.8 kb/s
  72. Count of elements                        : 3718
  73. Stream size                              : 38.9 MiB (1%)
  74. Title                                    : English SDH
  75. Language                                 : English
  76. Default                                  : No
  77. Forced                                   : No

  78. Text #2
  79. ID                                       : 5
  80. Format                                   : PGS
  81. Muxing mode                              : zlib
  82. Codec ID                                 : S_HDMV/PGS
  83. Codec ID/Info                            : Picture based subtitle format used on BDs/HD-DVDs
  84. Duration                                 : 1 h 45 min
  85. Bit rate                                 : 44.3 kb/s
  86. Count of elements                        : 3062
  87. Stream size                              : 33.4 MiB (1%)
  88. Title                                    : Spanish
  89. Language                                 : Spanish
  90. Default                                  : No
  91. Forced                                   : No

  92. Menu
  93. 00:00:00.000                             : Chapter 01
  94. 00:03:04.893                             : Chapter 02
  95. 00:10:44.811                             : Chapter 03
  96. 00:16:47.798                             : Chapter 04
  97. 00:24:18.999                             : Chapter 05
  98. 00:31:00.650                             : Chapter 06
  99. 00:38:01.321                             : Chapter 07
  100. 00:43:17.970                             : Chapter 08
  101. 00:50:25.814                             : Chapter 09
  102. 00:57:47.506                             : Chapter 10
  103. 01:04:32.619                             : Chapter 11
  104. 01:14:34.637                             : Chapter 12
  105. 01:23:22.956                             : Chapter 13
  106. 01:29:19.771                             : Chapter 14
  107. 01:35:23.843                             : Chapter 15
  108. 01:41:29.458                             : Chapter 16
  109. 01:51:50.495                             : Chapter 17
复制代码





                                       
                                       

                                       
                                       
                                       




回复

使用道具 举报

懒得打字嘛,点击右侧快捷回复 【右侧内容,后台自定义】
您需要登录后才可以回帖 登录 | 立即加入

本版积分规则

Archiver|小黑屋| 蓝光电影网 |网站地图

Copyright © 2021 Comsenz Inc. Powered by 蓝光电影网

蓝光电影网

本站内容由用户自主分享和转载自互联网,转载目的在于传递更多信息,并不代表本网赞同其观点和对其真实性负责。

如有侵权、违反国家法律政策行为,请联系我们,我们会第一时间及时清除和处理!

举报反馈邮箱:[email protected]

快速回复 返回顶部 返回列表