找回密码

蓝光电影网

查看: 16|回复: 0

[动作] 拳精 Spiritual.Kung.Fu.1978.720p.BluRay.x264-BiPOLAR 5.91GB

[复制链接]
蓝光币
382
发表于 2020-11-23 08:37:33 | 显示全部楼层 |阅读模式


◎译  名 Spiritual Kung Fu
◎片  名 拳精
◎年  代 1978
◎产  地 中国香港
◎类  别 行动
◎语  言 粤语
◎上映日期 1978-11-23
◎IMDb评分  5.9/10 from 1931 users
◎IMDb链接  https://www.imdb.com/title/tt0078128/
◎豆瓣评分 6.6/10 from 2220 users
◎豆瓣链接 https://movie.douban.com/subject/1308308/
◎片  长 UK: 94 分钟
◎导  演 罗维 Wei Lo
◎编  剧 潘垒 Lei  Pan
◎主  演 成龙 Jackie Chan
       田俊 James Tien Chun
       石天 Dean Shek
       李文泰 Wen Tai Li
       李昆 Kun Li
       江志平 Chih-Ping Chiang
       徐沅 Yuan Hsu
       李海龙 Hae-ryong Lee
       王光裕 Kuang Yu Wang
       元彪 Biao Yuen
◎标  签 成龙 | 行动 | 香港 | 香港电影 | 功夫 | 1978 | 罗维 | 电影
◎简  介


  少林门生一郎(成龙 饰)素性胆小,调皮贪玩,是徒弟门下的“题目门生”。有传闻,寺中的藏经阁里有鬼魂出没,常日里没有人胆敢靠近一步,恰恰这一郎恍如吃了大志豹子胆,居然自动提出要前往看管。
  
  在藏经阁内,一郎公然碰见了鬼魂,它们别离是:龙、蛇、虎、鹤、豹。鬼魂们教会了一郎失传已久的五行拳,使得一郎的武功大有进步。一次偶然中,一郎意外的发现概况上和善可亲的徒弟居然是江湖上污名昭著的大盗,正义感极强的一郎决心铲奸除恶。可是,徒弟的武功非常高强,用心亦非常邪恶,面临如此强大的对手,一郎可以获得终极的成功吗?
  1. Video
  2. ID                                       : 1
  3. Format                                   : AVC
  4. Format/Info                              : Advanced Video Codec
  5. Format profile                           : [email protected]
  6. Format settings                          : CABAC / 12 Ref Frames
  7. Format settings, CABAC                   : Yes
  8. Format settings, Reference frames        : 12 frames
  9. Codec ID                                 : V_MPEG4/ISO/AVC
  10. Duration                                 : 1 h 38 min
  11. Bit rate                                 : 7 452 kb/s
  12. Width                                    : 1 280 pixels
  13. Height                                   : 536 pixels
  14. Display aspect ratio                     : 2.40:1
  15. Frame rate mode                          : Constant
  16. Frame rate                               : 23.976 (24000/1001/189150) FPS
  17. Color space                              : YUV
  18. Chroma subsampling                       : 4:2:0
  19. Bit depth                                : 8 bits
  20. Scan type                                : Progressive
  21. Bits/(Pixel*Frame)                       : 0.453
  22. Stream size                              : 5.14 GiB (87%)
  23. Writing library                          : x264 core 161 r3027 4121277
  24. Encoding settings                        : cabac=1 / ref=12 / deblock=1:-3:-3 / analyse=0x3:0x133 / me=umh / subme=10 / psy=1 / psy_rd=1.00:0.15 / mixed_ref=1 / me_range=24 / chroma_me=1 / trellis=2 / 8x8dct=1 / cqm=0 / deadzone=21,11 / fast_pskip=1 / chroma_qp_offset=-3 / threads=17 / lookahead_threads=2 / sliced_threads=0 / nr=0 / decimate=1 / interlaced=0 / bluray_compat=0 / constrained_intra=0 / bframes=8 / b_pyramid=2 / b_adapt=2 / b_bias=0 / direct=3 / weightb=1 / open_gop=0 / weightp=2 / keyint=250 / keyint_min=23 / scenecut=40 / intra_refresh=0 / rc_lookahead=60 / rc=crf / mbtree=1 / crf=15.0 / qcomp=0.60 / qpmin=0 / qpmax=69 / qpstep=4 / ip_ratio=1.40 / aq=3:0.50
  25. Language                                 : English
  26. Default                                  : Yes
  27. Forced                                   : No
  28. Color range                              : Limited
  29. Matrix coefficients                      : BT.709

  30. Audio #1
  31. ID                                       : 2
  32. Format                                   : FLAC
  33. Format/Info                              : Free Lossless Audio Codec
  34. Codec ID                                 : A_FLAC
  35. Duration                                 : 1 h 38 min
  36. Bit rate mode                            : Variable
  37. Bit rate                                 : 246 kb/s
  38. Channel(s)                               : 2 channels
  39. Channel layout                           : L R
  40. Sampling rate                            : 48.0 kHz
  41. Frame rate                               : 11.719 FPS (4096 SPF)
  42. Bit depth                                : 16 bits
  43. Compression mode                         : Lossless
  44. Stream size                              : 174 MiB (3%)
  45. Title                                    : Cantonese
  46. Writing library                          : libFLAC 1.2.1 (UTC 2007-09-17)
  47. Language                                 : Chinese
  48. Default                                  : Yes
  49. Forced                                   : No

  50. Audio #2
  51. ID                                       : 3
  52. Format                                   : FLAC
  53. Format/Info                              : Free Lossless Audio Codec
  54. Codec ID                                 : A_FLAC
  55. Duration                                 : 1 h 38 min
  56. Bit rate mode                            : Variable
  57. Bit rate                                 : 252 kb/s
  58. Channel(s)                               : 2 channels
  59. Channel layout                           : L R
  60. Sampling rate                            : 48.0 kHz
  61. Frame rate                               : 11.719 FPS (4096 SPF)
  62. Bit depth                                : 16 bits
  63. Compression mode                         : Lossless
  64. Stream size                              : 178 MiB (3%)
  65. Title                                    : English
  66. Writing library                          : libFLAC 1.2.1 (UTC 2007-09-17)
  67. Language                                 : English
  68. Default                                  : No
  69. Forced                                   : No

  70. Audio #3
  71. ID                                       : 4
  72. Format                                   : FLAC
  73. Format/Info                              : Free Lossless Audio Codec
  74. Codec ID                                 : A_FLAC
  75. Duration                                 : 1 h 38 min
  76. Bit rate mode                            : Variable
  77. Bit rate                                 : 255 kb/s
  78. Channel(s)                               : 2 channels
  79. Channel layout                           : L R
  80. Sampling rate                            : 48.0 kHz
  81. Frame rate                               : 11.719 FPS (4096 SPF)
  82. Bit depth                                : 16 bits
  83. Compression mode                         : Lossless
  84. Stream size                              : 180 MiB (3%)
  85. Title                                    : Mandarin
  86. Writing library                          : libFLAC 1.2.1 (UTC 2007-09-17)
  87. Language                                 : English
  88. Default                                  : No
  89. Forced                                   : No

  90. Audio #4
  91. ID                                       : 5
  92. Format                                   : FLAC
  93. Format/Info                              : Free Lossless Audio Codec
  94. Codec ID                                 : A_FLAC
  95. Duration                                 : 1 h 38 min
  96. Bit rate mode                            : Variable
  97. Bit rate                                 : 211 kb/s
  98. Channel(s)                               : 2 channels
  99. Channel layout                           : L R
  100. Sampling rate                            : 48.0 kHz
  101. Frame rate                               : 11.719 FPS (4096 SPF)
  102. Bit depth                                : 16 bits
  103. Compression mode                         : Lossless
  104. Stream size                              : 149 MiB (2%)
  105. Title                                    : Cantonese (Alternate Version)
  106. Writing library                          : libFLAC 1.2.1 (UTC 2007-09-17)
  107. Language                                 : Chinese
  108. Default                                  : No
  109. Forced                                   : No

  110. Audio #5
  111. ID                                       : 6
  112. Format                                   : AAC LC
  113. Format/Info                              : Advanced Audio Codec Low Complexity
  114. Codec ID                                 : A_AAC-2
  115. Duration                                 : 1 h 38 min
  116. Bit rate                                 : 92.7 kb/s
  117. Channel(s)                               : 2 channels
  118. Channel layout                           : L R
  119. Sampling rate                            : 48.0 kHz
  120. Frame rate                               : 46.875 FPS (1024 SPF)
  121. Compression mode                         : Lossy
  122. Delay relative to video                  : 9 ms
  123. Stream size                              : 65.4 MiB (1%)
  124. Title                                    : English Commentary by Mike Leeder and Arne Venema
  125. Language                                 : English
  126. Default                                  : No
  127. Forced                                   : No

  128. Text #1
  129. ID                                       : 7
  130. Format                                   : UTF-8
  131. Codec ID                                 : S_TEXT/UTF8
  132. Codec ID/Info                            : UTF-8 Plain Text
  133. Duration                                 : 1 h 36 min
  134. Bit rate                                 : 43 b/s
  135. Count of elements                        : 916
  136. Stream size                              : 31.1 KiB (0%)
  137. Title                                    : English
  138. Language                                 : English
  139. Default                                  : Yes
  140. Forced                                   : Yes

  141. Text #2
  142. ID                                       : 8
  143. Format                                   : PGS
  144. Muxing mode                              : zlib
  145. Codec ID                                 : S_HDMV/PGS
  146. Codec ID/Info                            : Picture based subtitle format used on BDs/HD-DVDs
  147. Duration                                 : 1 h 36 min
  148. Bit rate                                 : 22.8 kb/s
  149. Count of elements                        : 1832
  150. Stream size                              : 15.8 MiB (0%)
  151. Title                                    : English
  152. Language                                 : English
  153. Default                                  : No
  154. Forced                                   : No

  155. Text #3
  156. ID                                       : 9
  157. Format                                   : UTF-8
  158. Codec ID                                 : S_TEXT/UTF8
  159. Codec ID/Info                            : UTF-8 Plain Text
  160. Duration                                 : 1 h 33 min
  161. Bit rate                                 : 0 b/s
  162. Count of elements                        : 16
  163. Stream size                              : 562 Bytes (0%)
  164. Title                                    : English forced
  165. Language                                 : English
  166. Default                                  : No
  167. Forced                                   : No

  168. Text #4
  169. ID                                       : 10
  170. Format                                   : PGS
  171. Muxing mode                              : zlib
  172. Codec ID                                 : S_HDMV/PGS
  173. Codec ID/Info                            : Picture based subtitle format used on BDs/HD-DVDs
  174. Duration                                 : 1 h 33 min
  175. Bit rate                                 : 470 b/s
  176. Count of elements                        : 32
  177. Stream size                              : 322 KiB (0%)
  178. Title                                    : English forced
  179. Language                                 : English
  180. Default                                  : No
  181. Forced                                   : No

  182. Text #5
  183. ID                                       : 11
  184. Format                                   : UTF-8
  185. Codec ID                                 : S_TEXT/UTF8
  186. Codec ID/Info                            : UTF-8 Plain Text
  187. Duration                                 : 1 h 36 min
  188. Bit rate                                 : 41 b/s
  189. Count of elements                        : 883
  190. Stream size                              : 29.7 KiB (0%)
  191. Title                                    : English (for Mandarin track)
  192. Language                                 : English
  193. Default                                  : No
  194. Forced                                   : No

  195. Text #6
  196. ID                                       : 12
  197. Format                                   : PGS
  198. Muxing mode                              : zlib
  199. Codec ID                                 : S_HDMV/PGS
  200. Codec ID/Info                            : Picture based subtitle format used on BDs/HD-DVDs
  201. Duration                                 : 1 h 36 min
  202. Bit rate                                 : 21.8 kb/s
  203. Count of elements                        : 1766
  204. Stream size                              : 15.1 MiB (0%)
  205. Title                                    : English (for Mandarin track)
  206. Language                                 : English
  207. Default                                  : No
  208. Forced                                   : No

  209. Text #7
  210. ID                                       : 13
  211. Format                                   : UTF-8
  212. Codec ID                                 : S_TEXT/UTF8
  213. Codec ID/Info                            : UTF-8 Plain Text
  214. Duration                                 : 1 h 36 min
  215. Bit rate                                 : 43 b/s
  216. Count of elements                        : 913
  217. Stream size                              : 31.1 KiB (0%)
  218. Title                                    : English (for Alternate Cantonese track)
  219. Language                                 : English
  220. Default                                  : No
  221. Forced                                   : No

  222. Text #8
  223. ID                                       : 14
  224. Format                                   : PGS
  225. Muxing mode                              : zlib
  226. Codec ID                                 : S_HDMV/PGS
  227. Codec ID/Info                            : Picture based subtitle format used on BDs/HD-DVDs
  228. Duration                                 : 1 h 36 min
  229. Bit rate                                 : 22.7 kb/s
  230. Count of elements                        : 1826
  231. Stream size                              : 15.8 MiB (0%)
  232. Title                                    : English (for Alternate Cantonese track)
  233. Language                                 : English
  234. Default                                  : No
  235. Forced                                   : No

  236. Menu
  237. 00:00:00.000                             : en:00:00:00.000
  238. 00:07:38.375                             : en:00:07:38.375
  239. 00:16:30.823                             : en:00:16:30.823
  240. 00:24:42.773                             : en:00:24:42.773
  241. 00:35:27.500                             : en:00:35:27.500
  242. 00:41:38.287                             : en:00:41:38.287
  243. 00:46:21.904                             : en:00:46:21.904
  244. 00:54:57.669                             : en:00:54:57.669
  245. 01:03:20.088                             : en:01:03:20.088
  246. 01:17:18.843                             : en:01:17:18.843
  247. 01:23:57.532                             : en:01:23:57.532
  248. 01:31:42.580                             : en:01:31:42.580
复制代码




                                       
                                       

                                       
                                       
                                       




回复

使用道具 举报

懒得打字嘛,点击右侧快捷回复 【右侧内容,后台自定义】
您需要登录后才可以回帖 登录 | 立即加入

本版积分规则

Archiver|小黑屋| 蓝光电影网 |网站地图

Copyright © 2021 Comsenz Inc. Powered by 蓝光电影网

蓝光电影网

本站内容由用户自主分享和转载自互联网,转载目的在于传递更多信息,并不代表本网赞同其观点和对其真实性负责。

如有侵权、违反国家法律政策行为,请联系我们,我们会第一时间及时清除和处理!

举报反馈邮箱:[email protected]

快速回复 返回顶部 返回列表