找回密码

蓝光电影网

查看: 24|回复: 0

[科幻] 飞碟征空/孤独的地球 This.Island.Earth.1955.1080p.BluRay.x264-USURY 6.56GB

[复制链接]
蓝光币
426
发表于 2020-10-30 09:54:23 | 显示全部楼层 |阅读模式


◎译  名 飞碟征空/孤独的地球
◎片  名 This Island Earth
◎年  代 1955
◎产  地 美国
◎类  别 科幻
◎语  言 英语
◎上映日期 1955-06-15(USA)
◎IMDb评分  5.9/10 from 8765 users
◎IMDb链接  https://www.imdb.com/title/tt0047577/
◎豆瓣评分 /10 from 0 users
◎豆瓣链接 https://movie.douban.com/subject/1300412/
◎片  长 87 分钟
◎导  演 约瑟夫·纽曼 Joseph M. Newman
◎编  剧 富兰克林·库恩 Franklin Coen / F·理查德·琼斯 F. Richard Jones / Raymond F. Jones
◎主  演 Jack Byron
       Coleman Francis
       杰夫·莫罗 Jeff Morrow
       菲斯·多默格 Faith Domergue
       罗伯特威廉姆斯 Robert Williams
       道格拉斯·斯宾塞 Douglas Spencer
       莱克斯·瑞森 Rex Reason
       奥兰·索尔 Olan Soule
       罗伯特·尼克尔斯 Robert Nichols
       Regis Parton
       Karl Ludwig Lindt
       兰斯·富勒 Lance Fuller
       Marc Hamilton
       Edward Hearn
       罗素·约翰逊 Russell Johnson
       Spencer Chan
       理查德·迪肯 Richard Deacon
◎标  签 科幻 | 美国 | 1955 | 美国电影 | 1950s | 电影 | 寻觅异域天下 | 1950
◎简  介


  Aliens come to Earth seeking scientists to help them in their war.
  1. Video
  2. ID                                       : 1
  3. Format                                   : AVC
  4. Format/Info                              : Advanced Video Codec
  5. Format profile                           : [email protected]
  6. Format settings                          : CABAC / 4 Ref Frames
  7. Format settings, CABAC                   : Yes
  8. Format settings, Reference frames        : 4 frames
  9. Codec ID                                 : V_MPEG4/ISO/AVC
  10. Duration                                 : 1 h 26 min
  11. Bit rate                                 : 9 405 kb/s
  12. Width                                    : 1 920 pixels
  13. Height                                   : 1 040 pixels
  14. Display aspect ratio                     : 1.85:1
  15. Frame rate mode                          : Constant
  16. Frame rate                               : 23.976 FPS
  17. Color space                              : YUV
  18. Chroma subsampling                       : 4:2:0
  19. Bit depth                                : 8 bits
  20. Scan type                                : Progressive
  21. Bits/(Pixel*Frame)                       : 0.196
  22. Stream size                              : 5.52 GiB (84%)
  23. Writing library                          : x264 core 148 r2638 7599210
  24. Encoding settings                        : cabac=1 / ref=4 / deblock=1:0:0 / analyse=0x3:0x133 / me=umh / subme=7 / psy=1 / psy_rd=1.00:0.00 / mixed_ref=1 / me_range=16 / chroma_me=1 / trellis=1 / 8x8dct=1 / cqm=0 / deadzone=21,11 / fast_pskip=0 / chroma_qp_offset=-2 / threads=6 / lookahead_threads=1 / sliced_threads=0 / nr=0 / decimate=1 / interlaced=0 / bluray_compat=0 / constrained_intra=0 / bframes=3 / b_pyramid=2 / b_adapt=2 / b_bias=0 / direct=3 / weightb=1 / open_gop=0 / weightp=2 / keyint=250 / keyint_min=23 / scenecut=40 / intra_refresh=0 / rc_lookahead=50 / rc=2pass / mbtree=1 / bitrate=9405 / ratetol=1.0 / qcomp=0.60 / qpmin=0 / qpmax=69 / qpstep=4 / cplxblur=20.0 / qblur=0.5 / ip_ratio=1.40 / aq=1:1.00
  25. Language                                 : English
  26. Default                                  : Yes
  27. Forced                                   : No

  28. Audio
  29. ID                                       : 2
  30. Format                                   : DTS
  31. Format/Info                              : Digital Theater Systems
  32. Codec ID                                 : A_DTS
  33. Duration                                 : 1 h 26 min
  34. Bit rate mode                            : Constant
  35. Bit rate                                 : 1 509 kb/s
  36. Channel(s)                               : 6 channels
  37. Channel(s)_Original                      : 3 channels
  38. ChannelLayout_Original                   : L R LFE
  39. Sampling rate                            : 48.0 kHz
  40. Frame rate                               : 93.750 FPS (512 SPF)
  41. Bit depth                                : 24 bits
  42. Compression mode                         : Lossy
  43. Stream size                              : 928 MiB (14%)
  44. Language                                 : English
  45. Default                                  : Yes
  46. Forced                                   : No

  47. Menu
  48. 00:00:00.000                             : en:00:00:00.000
  49. 00:00:14.056                             : en:00:00:14.056
  50. 00:01:15.075                             : en:00:01:15.075
  51. 00:01:18.787                             : en:00:01:18.787
  52. 00:10:06.606                             : en:00:10:06.606
  53. 00:32:08.927                             : en:00:32:08.927
  54. 00:46:00.758                             : en:00:46:00.758
  55. 00:50:57.054                             : en:00:50:57.054
  56. 00:59:20.557                             : en:00:59:20.557
  57. 01:06:38.995                             : en:01:06:38.995
  58. 01:17:49.665                             : en:01:17:49.665
  59. 01:25:32.085                             : en:01:25:32.085
复制代码






                                       
                                       

                                       
                                       
                                       




回复

使用道具 举报

懒得打字嘛,点击右侧快捷回复 【右侧内容,后台自定义】
您需要登录后才可以回帖 登录 | 立即加入

本版积分规则

Archiver|小黑屋| 蓝光电影网 |网站地图

Copyright © 2021 Comsenz Inc. Powered by 蓝光电影网

蓝光电影网

本站内容由用户自主分享和转载自互联网,转载目的在于传递更多信息,并不代表本网赞同其观点和对其真实性负责。

如有侵权、违反国家法律政策行为,请联系我们,我们会第一时间及时清除和处理!

举报反馈邮箱:[email protected]

快速回复 返回顶部 返回列表