找回密码

蓝光电影网

查看: 16|回复: 0

[恐怖] 死亡化妆舞会 The.Masque.of.the.Red.Death.1989.1080p.BluRay.x264.DTS-FGT 8.47GB

[复制链接]
蓝光币
382
发表于 2020-11-26 09:14:54 | 显示全部楼层 |阅读模式


◎译  名 灭亡化装舞会
◎片  名 Masque of the Red Death
◎年  代 1989
◎产  地 美国
◎类  别 可骇
◎语  言 英语
◎上映日期 1989
◎IMDb评分  3.3/10 from 247 users
◎IMDb链接  https://www.imdb.com/title/tt0179334/
◎豆瓣评分 5.8/10 from 40 users
◎豆瓣链接 https://movie.douban.com/subject/3894120/
◎片  长 89分钟
◎导  演 艾伦·伯金肖 Alan Birkinshaw
◎编  剧 埃德加·爱伦·坡  Edgar Allan Poe
◎主  演 赫伯特·罗姆 Herbert Lom
       弗兰克·史泰龙 Frank Stallone
       布伦达·瓦卡罗 Brenda Vaccaro
◎标  签 惊悚 | 美国 | 可骇 | 爱伦坡 | 高中的回忆 | 童年回忆 | 可骇电影 | 美国电影
◎简  介


  在一座18世纪隐密的城堡里,一场化装舞会正要起头,而一个戴着面具的杀人凶手跃跃欲试,想要教这些宾客一种新的狂欢方式。这部电影可说是爱伦坡典范可骇小说的现代改编版,这些毫无戒心的宾客一样发现自己被困住了,玩着一场攸关生死的捉迷藏,有小我则以杀报酬乐,大举狂欢。这个凶手不想牵丝攀藤地处理屋子里的人,因而屋内的宾客缓慢骤减,蕾贝卡则是唯一的幸存者,她有充足的勇气来面临这名面具杀手吗?她的命运将是若何,是安然逃过一劫,还是毕竟也成为凶手的祭品呢?
  1. Video
  2. ID                                       : 1
  3. Format                                   : AVC
  4. Format/Info                              : Advanced Video Codec
  5. Format profile                           : [email protected]
  6. Format settings                          : CABAC / 4 Ref Frames
  7. Format settings, CABAC                   : Yes
  8. Format settings, Reference frames        : 4 frames
  9. Codec ID                                 : V_MPEG4/ISO/AVC
  10. Duration                                 : 1 h 33 min
  11. Bit rate                                 : 11.5 Mb/s
  12. Width                                    : 1 920 pixels
  13. Height                                   : 1 080 pixels
  14. Display aspect ratio                     : 16:9
  15. Frame rate mode                          : Constant
  16. Frame rate                               : 23.976 (24000/1001/189150) FPS
  17. Color space                              : YUV
  18. Chroma subsampling                       : 4:2:0
  19. Bit depth                                : 8 bits
  20. Scan type                                : Progressive
  21. Bits/(Pixel*Frame)                       : 0.231
  22. Stream size                              : 7.48 GiB (88%)
  23. Title                                    : The.Masque.of.the.Red.Death.1989.1080p.BluRay.x264.DTS-FGT
  24. Writing library                          : x264 core 148 r2795M aaa9aa8
  25. Encoding settings                        : cabac=1 / ref=4 / deblock=1:-2:-2 / analyse=0x3:0x113 / me=umh / subme=9 / psy=1 / psy_rd=1.00:0.15 / mixed_ref=1 / me_range=16 / chroma_me=1 / trellis=2 / 8x8dct=1 / cqm=0 / deadzone=21,11 / fast_pskip=1 / chroma_qp_offset=-3 / threads=24 / lookahead_threads=3 / sliced_threads=0 / nr=0 / decimate=1 / interlaced=0 / bluray_compat=0 / constrained_intra=0 / bframes=3 / b_pyramid=2 / b_adapt=1 / b_bias=0 / direct=3 / weightb=1 / open_gop=0 / weightp=2 / keyint=250 / keyint_min=25 / scenecut=40 / intra_refresh=0 / rc_lookahead=50 / rc=2pass / mbtree=1 / bitrate=11500 / ratetol=1.0 / qcomp=0.60 / qpmin=0 / qpmax=69 / qpstep=4 / cplxblur=20.0 / qblur=0.5 / vbv_maxrate=31250 / vbv_bufsize=31250 / nal_hrd=none / filler=0 / ip_ratio=1.40 / aq=1:1.00
  26. Language                                 : English
  27. Default                                  : Yes
  28. Forced                                   : No
  29. Audio
  30. ID                                       : 2
  31. ID in the original source medium         : 4352 (0x1100)
  32. Format                                   : DTS
  33. Format/Info                              : Digital Theater Systems
  34. Codec ID                                 : A_DTS
  35. Duration                                 : 1 h 33 min
  36. Bit rate mode                            : Constant
  37. Bit rate                                 : 1 509 kb/s
  38. Channel(s)                               : 2 channels
  39. Channel layout                           : L R
  40. Sampling rate                            : 48.0 kHz
  41. Frame rate                               : 93.750 FPS (512 SPF)
  42. Bit depth                                : 24 bits
  43. Compression mode                         : Lossy
  44. Stream size                              : 1 006 MiB (12%)
  45. Title                                    : The.Masque.of.the.Red.Death.1989.1080p.BluRay.x264.DTS-FGT
  46. Language                                 : English
  47. Default                                  : No
  48. Forced                                   : No
  49. Original source medium                   : Blu-ray
  50. Text
  51. ID                                       : 3
  52. Format                                   : UTF-8
  53. Codec ID                                 : S_TEXT/UTF8
  54. Codec ID/Info                            : UTF-8 Plain Text
  55. Duration                                 : 1 h 27 min
  56. Bit rate                                 : 39 b/s
  57. Count of elements                        : 1020
  58. Stream size                              : 25.4 KiB (0%)
  59. Language                                 : English
  60. Default                                  : Yes
  61. Forced                                   : No
  62. Menu
  63. 00:00:00.000                             : en:Chapter 01
  64. 00:06:12.163                             : en:Chapter 02
  65. 00:13:35.981                             : en:Chapter 03
  66. 00:20:14.922                             : en:Chapter 04
  67. 00:26:09.442                             : en:Chapter 05
  68. 00:35:15.613                             : en:Chapter 06
  69. 00:40:32.680                             : en:Chapter 07
  70. 00:45:17.548                             : en:Chapter 08
  71. 00:51:03.351                             : en:Chapter 09
  72. 00:56:37.727                             : en:Chapter 10
  73. 01:01:48.705                             : en:Chapter 11
  74. 01:09:46.515                             : en:Chapter 12
  75. 01:17:44.910                             : en:Chapter 13
  76. 01:30:07.110                             : en:Chapter 14
复制代码





                                       
                                       

                                       
                                       
                                       




回复

使用道具 举报

懒得打字嘛,点击右侧快捷回复 【右侧内容,后台自定义】
您需要登录后才可以回帖 登录 | 立即加入

本版积分规则

Archiver|小黑屋| 蓝光电影网 |网站地图

Copyright © 2021 Comsenz Inc. Powered by 蓝光电影网

蓝光电影网

本站内容由用户自主分享和转载自互联网,转载目的在于传递更多信息,并不代表本网赞同其观点和对其真实性负责。

如有侵权、违反国家法律政策行为,请联系我们,我们会第一时间及时清除和处理!

举报反馈邮箱:[email protected]

快速回复 返回顶部 返回列表