找回密码

蓝光电影网

查看: 11|回复: 0

[动作] 白髮魔女傳 The.Bride.with.White.Hair.1993.720p.BluRay.x264-USURY 6.65GB

[复制链接]
蓝光币
382
发表于 2020-11-15 23:40:09 | 显示全部楼层 |阅读模式


◎译  名 鹤发魔女传/The Bride with White Hair/狼女
◎片  名 白髮魔女傳
◎年  代 1993
◎产  地 中国香港
◎类  别 行动 / 恋爱 / 奇异 / 冒险 / 武侠 / 古装
◎语  言 粤语
◎上映日期 1993-08-26(中国香港)
◎IMDb评分  6.9/10 from 3212 users
◎IMDb链接  https://www.imdb.com/title/tt0106342/
◎豆瓣评分 7.7/10 from 66696 users
◎豆瓣链接 https://movie.douban.com/subject/1293765/
◎片  长 89分钟
◎导  演 于仁泰 Ronny Yu / 胡大为 David Wu
◎编  剧 胡大为 David Wu / 于仁泰 Ronny Yu / 邓碧燕 Elsa Tang / 林纪陶 Jason Lam / 梁羽生 Yusheng Liang
◎主  演 张国荣 Leslie Cheung
       林青霞 Brigitte Lin
       吴镇宇 Francis Ng
       吕少玲 Elaine Lui
       蓝洁瑛 Kit Ying Lam
       罗乐林 Lok Lam Law
       鲍方 Fong Pau
       高雄 Eddy Ko
       曾健明 Kin-Ming Tsang
       袁卓凡 Richard Yuen
       郑敬基 King-Kei Cheng
       唐宁 Leila Tong
◎标  签 香港 | 武侠 | 恋爱 | 行动 | 典范 | 古装 | 1993 | 徐克
◎简  介


  明末年间,华夏与金国边境烽火硝烟四起,姬无双(吴镇宇 饰)的魔教大行肆虐。朝廷与武林结合抗敌。武当派首徒卓一航(张国荣 饰)自幼横冲直撞,但天资过人,极受掌门紫阳真人垂青。卓一航年少奇遇不竭,前后结识了那时还只是武官的吴三桂(高雄 饰)与奥秘的狼女(林青霞 饰)。成年后的卓一航为人正直,但浪子赋性不改,不愿回礼教约束,仗义行侠却频频受指。大师姐(蓝洁瑛 饰)对其倾慕,卓一航却绝不动心。再次偶遇狼女,卓一航心生爱意,狼女亦为之倾慕。然后正邪不两立,有情人面临诸般艰难险阻,终是黯然结束……
◎获奖情况
  第30届台北金马影展 ?(1993)
  金马奖最好改编剧本 邓碧燕?/?林纪陶?/?胡大为?/?于仁泰
  金马奖最好摄影(提名) 鲍德熹
  金马奖最好美术设想(提名) 马磐超
  金马奖最好原创歌曲
  
  第13届香港电影金像奖 ?(1994)
  最好摄影 鲍德熹
  最好剪接(提名) 胡大为
  最好美术指导 马磐超
  最好打扮外型设想 张新耀?/?和田惠美
  最好原创电影音乐(提名) 袁卓凡
  最好原创电影歌曲(提名) 张国荣
  1. Video
  2. ID                                       : 1
  3. Format                                   : AVC
  4. Format/Info                              : Advanced Video Codec
  5. Format profile                           : [email protected]
  6. Format settings                          : CABAC / 12 Ref Frames
  7. Format settings, CABAC                   : Yes
  8. Format settings, Reference frames        : 12 frames
  9. Codec ID                                 : V_MPEG4/ISO/AVC
  10. Duration                                 : 1 h 28 min
  11. Bit rate                                 : 8 150 kb/s
  12. Width                                    : 1 280 pixels
  13. Height                                   : 544 pixels
  14. Display aspect ratio                     : 2.35:1
  15. Frame rate mode                          : Constant
  16. Frame rate                               : 23.976 (24000/1001/189150) FPS
  17. Color space                              : YUV
  18. Chroma subsampling                       : 4:2:0
  19. Bit depth                                : 8 bits
  20. Scan type                                : Progressive
  21. Bits/(Pixel*Frame)                       : 0.488
  22. Stream size                              : 5.06 GiB (76%)
  23. Writing library                          : x264 core 161 r3027 4121277
  24. Encoding settings                        : cabac=1 / ref=12 / deblock=1:-3:-3 / analyse=0x3:0x133 / me=umh / subme=10 / psy=1 / psy_rd=1.00:0.15 / mixed_ref=1 / me_range=24 / chroma_me=1 / trellis=2 / 8x8dct=1 / cqm=0 / deadzone=21,11 / fast_pskip=1 / chroma_qp_offset=-3 / threads=17 / lookahead_threads=2 / sliced_threads=0 / nr=0 / decimate=1 / interlaced=0 / bluray_compat=0 / constrained_intra=0 / bframes=8 / b_pyramid=2 / b_adapt=2 / b_bias=0 / direct=3 / weightb=1 / open_gop=0 / weightp=2 / keyint=250 / keyint_min=23 / scenecut=40 / intra_refresh=0 / rc_lookahead=60 / rc=crf / mbtree=1 / crf=15.0 / qcomp=0.60 / qpmin=0 / qpmax=69 / qpstep=4 / ip_ratio=1.40 / aq=3:0.50
  25. Language                                 : English
  26. Default                                  : Yes
  27. Forced                                   : No
  28. Color range                              : Limited
  29. Matrix coefficients                      : BT.709

  30. Audio #1
  31. ID                                       : 2
  32. Format                                   : FLAC
  33. Format/Info                              : Free Lossless Audio Codec
  34. Codec ID                                 : A_FLAC
  35. Duration                                 : 1 h 28 min
  36. Bit rate mode                            : Variable
  37. Bit rate                                 : 597 kb/s
  38. Channel(s)                               : 2 channels
  39. Channel layout                           : L R
  40. Sampling rate                            : 48.0 kHz
  41. Frame rate                               : 11.719 FPS (4096 SPF)
  42. Bit depth                                : 16 bits
  43. Compression mode                         : Lossless
  44. Stream size                              : 380 MiB (6%)
  45. Title                                    : Cantonese (Original Stereo)
  46. Writing library                          : libFLAC 1.2.1 (UTC 2007-09-17)
  47. Language                                 : Chinese
  48. Default                                  : Yes
  49. Forced                                   : No

  50. Audio #2
  51. ID                                       : 3
  52. Format                                   : AC-3
  53. Format/Info                              : Audio Coding 3
  54. Commercial name                          : Dolby Digital
  55. Codec ID                                 : A_AC3
  56. Duration                                 : 1 h 28 min
  57. Bit rate mode                            : Constant
  58. Bit rate                                 : 640 kb/s
  59. Channel(s)                               : 6 channels
  60. Channel layout                           : L R C LFE Ls Rs
  61. Sampling rate                            : 48.0 kHz
  62. Frame rate                               : 31.250 FPS (1536 SPF)
  63. Compression mode                         : Lossy
  64. Stream size                              : 407 MiB (6%)
  65. Title                                    : Cantonese (Restored 5.1)
  66. Language                                 : Chinese
  67. Service kind                             : Complete Main
  68. Default                                  : No
  69. Forced                                   : No

  70. Audio #3
  71. ID                                       : 4
  72. Format                                   : FLAC
  73. Format/Info                              : Free Lossless Audio Codec
  74. Codec ID                                 : A_FLAC
  75. Duration                                 : 1 h 28 min
  76. Bit rate mode                            : Variable
  77. Bit rate                                 : 488 kb/s
  78. Channel(s)                               : 2 channels
  79. Channel layout                           : L R
  80. Sampling rate                            : 48.0 kHz
  81. Frame rate                               : 11.719 FPS (4096 SPF)
  82. Bit depth                                : 16 bits
  83. Compression mode                         : Lossless
  84. Stream size                              : 310 MiB (5%)
  85. Title                                    : English
  86. Writing library                          : libFLAC 1.2.1 (UTC 2007-09-17)
  87. Language                                 : English
  88. Default                                  : No
  89. Forced                                   : No

  90. Audio #4
  91. ID                                       : 5
  92. Format                                   : FLAC
  93. Format/Info                              : Free Lossless Audio Codec
  94. Codec ID                                 : A_FLAC
  95. Duration                                 : 1 h 28 min
  96. Bit rate mode                            : Variable
  97. Bit rate                                 : 440 kb/s
  98. Channel(s)                               : 2 channels
  99. Channel layout                           : L R
  100. Sampling rate                            : 48.0 kHz
  101. Frame rate                               : 11.719 FPS (4096 SPF)
  102. Bit depth                                : 16 bits
  103. Compression mode                         : Lossless
  104. Stream size                              : 280 MiB (4%)
  105. Title                                    : Mandarin
  106. Writing library                          : libFLAC 1.2.1 (UTC 2007-09-17)
  107. Language                                 : Chinese
  108. Default                                  : No
  109. Forced                                   : No

  110. Audio #5
  111. ID                                       : 6
  112. Format                                   : AAC LC
  113. Format/Info                              : Advanced Audio Codec Low Complexity
  114. Codec ID                                 : A_AAC-2
  115. Duration                                 : 1 h 28 min
  116. Bit rate                                 : 120 kb/s
  117. Channel(s)                               : 2 channels
  118. Channel layout                           : L R
  119. Sampling rate                            : 48.0 kHz
  120. Frame rate                               : 46.875 FPS (1024 SPF)
  121. Compression mode                         : Lossy
  122. Delay relative to video                  : 9 ms
  123. Stream size                              : 76.3 MiB (1%)
  124. Title                                    : English Commentary by Frank Djeng
  125. Language                                 : English
  126. Default                                  : No
  127. Forced                                   : No

  128. Audio #6
  129. ID                                       : 7
  130. Format                                   : AAC LC
  131. Format/Info                              : Advanced Audio Codec Low Complexity
  132. Codec ID                                 : A_AAC-2
  133. Duration                                 : 1 h 28 min
  134. Bit rate                                 : 132 kb/s
  135. Channel(s)                               : 2 channels
  136. Channel layout                           : L R
  137. Sampling rate                            : 48.0 kHz
  138. Frame rate                               : 46.875 FPS (1024 SPF)
  139. Compression mode                         : Lossy
  140. Delay relative to video                  : 9 ms
  141. Stream size                              : 84.4 MiB (1%)
  142. Title                                    : English Commentary by Ronny Yu
  143. Language                                 : English
  144. Default                                  : No
  145. Forced                                   : No

  146. Audio #7
  147. ID                                       : 8
  148. Format                                   : AAC LC
  149. Format/Info                              : Advanced Audio Codec Low Complexity
  150. Codec ID                                 : A_AAC-2
  151. Duration                                 : 1 h 28 min
  152. Bit rate                                 : 109 kb/s
  153. Channel(s)                               : 2 channels
  154. Channel layout                           : L R
  155. Sampling rate                            : 48.0 kHz
  156. Frame rate                               : 46.875 FPS (1024 SPF)
  157. Compression mode                         : Lossy
  158. Delay relative to video                  : 9 ms
  159. Stream size                              : 69.1 MiB (1%)
  160. Title                                    : English Commentary by Frank Djeng and David Wu
  161. Language                                 : English
  162. Default                                  : No
  163. Forced                                   : No

  164. Text #1
  165. ID                                       : 9
  166. Format                                   : UTF-8
  167. Codec ID                                 : S_TEXT/UTF8
  168. Codec ID/Info                            : UTF-8 Plain Text
  169. Duration                                 : 1 h 28 min
  170. Bit rate                                 : 52 b/s
  171. Count of elements                        : 892
  172. Stream size                              : 33.9 KiB (0%)
  173. Title                                    : English
  174. Language                                 : English
  175. Default                                  : Yes
  176. Forced                                   : Yes

  177. Text #2
  178. ID                                       : 10
  179. Format                                   : PGS
  180. Muxing mode                              : zlib
  181. Codec ID                                 : S_HDMV/PGS
  182. Codec ID/Info                            : Picture based subtitle format used on BDs/HD-DVDs
  183. Duration                                 : 1 h 28 min
  184. Bit rate                                 : 15.9 kb/s
  185. Count of elements                        : 1784
  186. Stream size                              : 10.1 MiB (0%)
  187. Title                                    : English
  188. Language                                 : English
  189. Default                                  : No
  190. Forced                                   : No

  191. Menu
  192. 00:00:00.000                             : en:00:00:00.000
  193. 00:07:58.186                             : en:00:07:58.186
  194. 00:21:30.998                             : en:00:21:30.998
  195. 00:34:07.921                             : en:00:34:07.921
  196. 00:44:04.392                             : en:00:44:04.392
  197. 00:57:24.316                             : en:00:57:24.316
  198. 01:07:13.112                             : en:01:07:13.112
  199. 01:16:55.402                             : en:01:16:55.402
  200. 01:23:16.200                             : en:01:23:16.200
复制代码




                                       
                                       

                                       
                                       
                                       




回复

使用道具 举报

懒得打字嘛,点击右侧快捷回复 【右侧内容,后台自定义】
您需要登录后才可以回帖 登录 | 立即加入

本版积分规则

Archiver|小黑屋| 蓝光电影网 |网站地图

Copyright © 2021 Comsenz Inc. Powered by 蓝光电影网

蓝光电影网

本站内容由用户自主分享和转载自互联网,转载目的在于传递更多信息,并不代表本网赞同其观点和对其真实性负责。

如有侵权、违反国家法律政策行为,请联系我们,我们会第一时间及时清除和处理!

举报反馈邮箱:[email protected]

快速回复 返回顶部 返回列表