找回密码

蓝光电影网

查看: 13|回复: 0

[惊悚] 恐怖之城 City.of.Fear.1959.720p.BluRay.x264-ORBS 4.61GB

[复制链接]
蓝光币
382
发表于 2021-6-1 15:53:47 | 显示全部楼层 |阅读模式
[img][/img]

◎译  名 可骇之城
◎片  名 City of Fear
◎年  代 1959
◎产  地 美国
◎类  别 惊悚 / 犯罪
◎语  言 英语
◎上映日期 1959
◎豆瓣评分 5.6/10 from 71 users
◎豆瓣链接 https://movie.douban.com/subject/4935210/
◎片  长 81 分钟
◎导  演 欧文·勒纳 Irving Lerner
◎编  剧 Steven Ritch / 罗伯特·狄龙 Robert Dillon
◎主  演 文斯·爱德华兹 Vince Edwards
       莱尔·塔尔博特 Lyle Talbot
       约翰·阿彻尔 John Archer
       帕特里夏·布莱尔 Patricia Blair
       Kelly Thordsen
       Steven Ritch
       Michael Mark
       Joseph Mell
       Jean Harvey
       Kathie Browne
       舍伍德·普赖斯 Sherwood Price
       拉里·J·布莱克 Larry J. Blake
◎标  签 美国 | 黑色 | 犯罪 | 黑色电影 | 黑色電影 | 美国电影 | 欧文·勒纳 | Noir
◎简  介


  一个凶残的杀手从圣昆廷逃了出来,带着一个罐子,他相信是海洛因,但现实上是一种放射性物资,威胁着全部洛杉矶。
  1. Video
  2. ID                                       : 1
  3. Format                                   : AVC
  4. Format/Info                              : Advanced Video Codec
  5. Format profile                           : [email protected]
  6. Format settings                          : CABAC / 9 Ref Frames
  7. Format settings, CABAC                   : Yes
  8. Format settings, Reference frames        : 9 frames
  9. Codec ID                                 : V_MPEG4/ISO/AVC
  10. Duration                                 : 1 h 15 min
  11. Bit rate                                 : 8 005 kb/s
  12. Width                                    : 1 280 pixels
  13. Height                                   : 694 pixels
  14. Display aspect ratio                     : 1.85:1
  15. Frame rate mode                          : Constant
  16. Frame rate                               : 23.976 (24000/1001/189150) FPS
  17. Color space                              : YUV
  18. Chroma subsampling                       : 4:2:0
  19. Bit depth                                : 8 bits
  20. Scan type                                : Progressive
  21. Bits/(Pixel*Frame)                       : 0.376
  22. Stream size                              : 4.20 GiB (91%)
  23. Writing library                          : x264 core 163 r3059 b684ebe
  24. Encoding settings                        : cabac=1 / ref=9 / deblock=1:-3:-3 / analyse=0x3:0x133 / me=umh / subme=10 / psy=1 / psy_rd=1.50:0.15 / mixed_ref=1 / me_range=24 / chroma_me=1 / trellis=2 / 8x8dct=1 / cqm=0 / deadzone=21,11 / fast_pskip=0 / chroma_qp_offset=-3 / threads=22 / lookahead_threads=3 / sliced_threads=0 / nr=0 / decimate=0 / interlaced=0 / bluray_compat=0 / constrained_intra=0 / bframes=8 / b_pyramid=2 / b_adapt=2 / b_bias=0 / direct=3 / weightb=1 / open_gop=0 / weightp=2 / keyint=250 / keyint_min=23 / scenecut=40 / intra_refresh=0 / rc_lookahead=60 / rc=crf / mbtree=1 / crf=20.0 / qcomp=0.60 / qpmin=0 / qpmax=69 / qpstep=4 / ip_ratio=1.40 / aq=3:0.50
  25. Default                                  : Yes
  26. Forced                                   : No
  27. Color range                              : Limited
  28. Matrix coefficients                      : BT.709

  29. Audio #1
  30. ID                                       : 2
  31. Format                                   : FLAC
  32. Format/Info                              : Free Lossless Audio Codec
  33. Codec ID                                 : A_FLAC
  34. Duration                                 : 1 h 15 min
  35. Bit rate mode                            : Variable
  36. Bit rate                                 : 666 kb/s
  37. Channel(s)                               : 1 channel
  38. Channel layout                           : C
  39. Sampling rate                            : 48.0 kHz
  40. Frame rate                               : 11.719 FPS (4096 SPF)
  41. Bit depth                                : 24 bits
  42. Compression mode                         : Lossless
  43. Stream size                              : 358 MiB (8%)
  44. Writing library                          : libFLAC 1.3.3 (UTC 2019-08-04)
  45. Language                                 : English
  46. Default                                  : Yes
  47. Forced                                   : No

  48. Audio #2
  49. ID                                       : 3
  50. Format                                   : AAC LC
  51. Format/Info                              : Advanced Audio Codec Low Complexity
  52. Codec ID                                 : A_AAC-2
  53. Duration                                 : 1 h 15 min
  54. Bit rate                                 : 99.9 kb/s
  55. Channel(s)                               : 2 channels
  56. Channel layout                           : L R
  57. Sampling rate                            : 48.0 kHz
  58. Frame rate                               : 46.875 FPS (1024 SPF)
  59. Compression mode                         : Lossy
  60. Delay relative to video                  : 20 ms
  61. Stream size                              : 53.7 MiB (1%)
  62. Title                                    : Commentary
  63. Language                                 : English
  64. Default                                  : No
  65. Forced                                   : No

  66. Text
  67. ID                                       : 4
  68. Format                                   : PGS
  69. Muxing mode                              : zlib
  70. Codec ID                                 : S_HDMV/PGS
  71. Codec ID/Info                            : Picture based subtitle format used on BDs/HD-DVDs
  72. Duration                                 : 1 h 13 min
  73. Bit rate                                 : 39.6 kb/s
  74. Count of elements                        : 1824
  75. Stream size                              : 20.9 MiB (0%)
  76. Title                                    : SDH
  77. Language                                 : English
  78. Default                                  : No
  79. Forced                                   : No

  80. Menu
  81. 00:00:00.000                             : en:Chapter 01
  82. 00:07:22.233                             : en:Chapter 02
  83. 00:15:46.988                             : en:Chapter 03
  84. 00:20:35.734                             : en:Chapter 04
  85. 00:28:53.231                             : en:Chapter 05
  86. 00:38:49.452                             : en:Chapter 06
  87. 00:46:41.132                             : en:Chapter 07
  88. 00:53:02.137                             : en:Chapter 08
  89. 00:59:08.754                             : en:Chapter 09
  90. 01:06:58.139                             : en:Chapter 10
复制代码




                                       
                                       

                                       
                                       
                                       




回复

使用道具 举报

懒得打字嘛,点击右侧快捷回复 【右侧内容,后台自定义】
您需要登录后才可以回帖 登录 | 立即加入

本版积分规则

Archiver|小黑屋| 蓝光电影网 |网站地图

Copyright © 2021 Comsenz Inc. Powered by 蓝光电影网

蓝光电影网

本站内容由用户自主分享和转载自互联网,转载目的在于传递更多信息,并不代表本网赞同其观点和对其真实性负责。

如有侵权、违反国家法律政策行为,请联系我们,我们会第一时间及时清除和处理!

举报反馈邮箱:[email protected]

快速回复 返回顶部 返回列表