找回密码

蓝光电影网

查看: 12|回复: 0

[动作] 罗小黑战记 The.Legend.of.Hei.2019.CHINESE.DUAL.1080p.BluRay.x264.DTS-HD.MA.5.1-MT 9.33GB

[复制链接]
蓝光币
382
发表于 2021-5-13 17:34:49 | 显示全部楼层 |阅读模式


◎译  名 The Legend of Hei/罗小黑战记大电影
◎片  名 罗小黑战记
◎年  代 2019
◎产  地 中国大陆
◎类  别 行动 / 动画 / 奇异
◎语  言 汉语普通话
◎上映日期 2019-08-27(大范围点映) / 2019-09-07(中国大陆)
◎IMDb评分  7.2/10 from 811 users
◎IMDb链接  https://www.imdb.com/title/tt10734928/
◎豆瓣评分 8.2/10 from 445266 users
◎豆瓣链接 https://movie.douban.com/subject/26709258/
◎片  长 101分钟
◎导  演 木头 MTJJ / 皇贞季 Zhen Wang / 顾杰
◎编  剧 木头 MTJJ / 彭可欣 Kexin Peng
◎主  演 山新 Shuang Wang
       郝祥海 Xianghai Hao
       刘明月 Mingyue Liu
       花泽香菜 Kana Hanazawa
       宫野真守 Mamoru Miyano
       樱井孝宏 Takahiro Sakurai
       大塚芳忠 H?ch? ?tsuka
       长岛雄一 Y?ichi Nagashima
       丰崎爱生 Aki Toyosaki
       齐藤壮马 Soma Saito
       杉田智和 Tomokazu Sugita
       松冈祯丞 Yoshitsugu Matsuoka
       水濑祈 Inori Minase
◎标  签 治愈 | 温情 | 动画 | 动漫 | 萌 | 中国大陆 | 二次元 | 长大
◎简  介


  在熙攘的人类天下里,很多妖精藏匿其中,他们与人类相安无事地生在世。猫妖罗小黑由于故里被破坏,起头了它的流浪之旅。这场旅途中惺惺相惜的妖精同类与和谐包容的人类伙伴相继出现,让小黑堕入了两难决定,究竟何处才是实在的归属?
◎获奖情况
  第33届中国电影金鸡奖 ?(2020)
  最好美术片(提名)
  
  第6届豆瓣电影年度榜单 ?(2019)
  评分最高的华语电影(提名)
  评分最高的动画片(提名)
  1. Video
  2. ID                                       : 1
  3. Format                                   : AVC
  4. Format/Info                              : Advanced Video Codec
  5. Format profile                           : [email protected]
  6. Format settings                          : CABAC / 5 Ref Frames
  7. Format settings, CABAC                   : Yes
  8. Format settings, Reference frames        : 5 frames
  9. Codec ID                                 : V_MPEG4/ISO/AVC
  10. Duration                                 : 1 h 41 min
  11. Bit rate                                 : 5 417 kb/s
  12. Width                                    : 1 920 pixels
  13. Height                                   : 808 pixels
  14. Display aspect ratio                     : 2.40:1
  15. Frame rate mode                          : Constant
  16. Frame rate                               : 24.000 FPS
  17. Color space                              : YUV
  18. Chroma subsampling                       : 4:2:0
  19. Bit depth                                : 8 bits
  20. Scan type                                : Progressive
  21. Bits/(Pixel*Frame)                       : 0.145
  22. Stream size                              : 3.85 GiB (41%)
  23. Writing library                          : x264 core 157 r2938 2b00a84 [email protected] Mod
  24. Encoding settings                        : cabac=1 / ref=5 / deblock=1:-3:-3 / analyse=0x3:0x133 / me=umh / subme=10 / psy=1 / psy_rd=1.05:0.00 / mixed_ref=1 / me_range=32 / chroma_me=1 / trellis=2 / 8x8dct=1 / cqm=0 / deadzone=21,11 / fast_pskip=0 / chroma_qp_offset=-2 / threads=12 / lookahead_threads=2 / sliced_threads=0 / nr=0 / decimate=0 / interlaced=0 / bluray_compat=0 / constrained_intra=0 / bframes=8 / b_pyramid=2 / b_adapt=2 / b_bias=0 / direct=3 / weightb=1 / open_gop=0 / weightp=2 / keyint=250 / keyint_min=24 / scenecut=40 / intra_refresh=0 / rc_lookahead=250 / rc=crf / mbtree=0 / crf=16.8 / qcomp=0.60 / qpmin=0 / qpmax=69 / qpstep=4 / vbv_maxrate=62500 / vbv_bufsize=78125 / crf_max=0.0 / nal_hrd=none / filler=0 / ip_ratio=1.30 / pb_ratio=1.20 / aq=3:0.80
  25. Language                                 : English
  26. Default                                  : Yes
  27. Forced                                   : No
  28. Color range                              : Limited
  29. Color primaries                          : BT.709
  30. Matrix coefficients                      : BT.709
  31. Audio #1
  32. ID                                       : 2
  33. Format                                   : DTS XLL
  34. Format/Info                              : Digital Theater Systems
  35. Commercial name                          : DTS-HD Master Audio
  36. Codec ID                                 : A_DTS
  37. Duration                                 : 1 h 41 min
  38. Bit rate mode                            : Variable
  39. Bit rate                                 : 3 714 kb/s
  40. Channel(s)                               : 6 channels
  41. Channel layout                           : C L R Ls Rs LFE
  42. Sampling rate                            : 48.0 kHz
  43. Frame rate                               : 93.750 FPS (512 SPF)
  44. Bit depth                                : 24 bits
  45. Compression mode                         : Lossless
  46. Stream size                              : 2.64 GiB (28%)
  47. Title                                    : DTS-HD Master Audio / 5.1 / 48 kHz /  3714 kbps / 24-bit
  48. Language                                 : Chinese
  49. Default                                  : Yes
  50. Forced                                   : No
  51. Audio #2
  52. ID                                       : 3
  53. Format                                   : DTS XLL
  54. Format/Info                              : Digital Theater Systems
  55. Commercial name                          : DTS-HD Master Audio
  56. Codec ID                                 : A_DTS
  57. Duration                                 : 1 h 41 min
  58. Bit rate mode                            : Variable
  59. Bit rate                                 : 3 969 kb/s
  60. Channel(s)                               : 6 channels
  61. Channel layout                           : C L R Ls Rs LFE
  62. Sampling rate                            : 48.0 kHz
  63. Frame rate                               : 93.750 FPS (512 SPF)
  64. Bit depth                                : 24 bits
  65. Compression mode                         : Lossless
  66. Stream size                              : 2.82 GiB (30%)
  67. Title                                    : DTS-HD Master Audio / 5.1 / 48 kHz /  3969 kbps / 24-bit
  68. Language                                 : English
  69. Default                                  : No
  70. Forced                                   : No
  71. Text #1
  72. ID                                       : 4
  73. Format                                   : UTF-8
  74. Codec ID                                 : S_TEXT/UTF8
  75. Codec ID/Info                            : UTF-8 Plain Text
  76. Duration                                 : 1 h 31 min
  77. Bit rate                                 : 39 b/s
  78. Count of elements                        : 1107
  79. Stream size                              : 26.7 KiB (0%)
  80. Title                                    : SRT
  81. Language                                 : English
  82. Default                                  : Yes
  83. Forced                                   : No
  84. Text #2
  85. ID                                       : 5
  86. Format                                   : PGS
  87. Muxing mode                              : zlib
  88. Codec ID                                 : S_HDMV/PGS
  89. Codec ID/Info                            : Picture based subtitle format used on BDs/HD-DVDs
  90. Duration                                 : 1 h 36 min
  91. Bit rate                                 : 21.9 kb/s
  92. Count of elements                        : 2470
  93. Stream size                              : 15.2 MiB (0%)
  94. Language                                 : English
  95. Default                                  : No
  96. Forced                                   : No
  97. Text #3
  98. ID                                       : 6
  99. Format                                   : PGS
  100. Muxing mode                              : zlib
  101. Codec ID                                 : S_HDMV/PGS
  102. Codec ID/Info                            : Picture based subtitle format used on BDs/HD-DVDs
  103. Duration                                 : 1 h 41 min
  104. Bit rate                                 : 29.6 kb/s
  105. Count of elements                        : 3408
  106. Stream size                              : 21.4 MiB (0%)
  107. Title                                    : SDH
  108. Language                                 : English
  109. Default                                  : No
  110. Forced                                   : No
  111. Menu
  112. 00:00:00.000                             : Chapter 01
  113. 00:08:05.167                             : Chapter 02
  114. 00:17:40.875                             : Chapter 03
  115. 00:24:55.708                             : Chapter 04
  116. 00:33:40.083                             : Chapter 05
  117. 00:40:02.625                             : Chapter 06
  118. 00:45:36.542                             : Chapter 07
  119. 00:55:16.167                             : Chapter 08
  120. 01:03:11.375                             : Chapter 09
  121. 01:11:45.833                             : Chapter 10
  122. 01:19:40.792                             : Chapter 11
  123. 01:29:17.333                             : Chapter 12
复制代码







                                       
                                       

                                       
                                       
                                       




回复

使用道具 举报

懒得打字嘛,点击右侧快捷回复 【右侧内容,后台自定义】
您需要登录后才可以回帖 登录 | 立即加入

本版积分规则

Archiver|小黑屋| 蓝光电影网 |网站地图

Copyright © 2021 Comsenz Inc. Powered by 蓝光电影网

蓝光电影网

本站内容由用户自主分享和转载自互联网,转载目的在于传递更多信息,并不代表本网赞同其观点和对其真实性负责。

如有侵权、违反国家法律政策行为,请联系我们,我们会第一时间及时清除和处理!

举报反馈邮箱:[email protected]

快速回复 返回顶部 返回列表