找回密码

蓝光电影网

查看: 14|回复: 0

[恐怖] 旅人 The.Tripper.2006.1080p.BluRay.x264.DTS-FGT 11.73GB

[复制链接]
蓝光币
386
发表于 2020-11-26 08:16:54 | 显示全部楼层 |阅读模式


◎译  名 旅人
◎片  名 The Tripper
◎年  代 2006
◎产  地 美国
◎类  别 可骇
◎语  言 英语
◎上映日期 2007-04-20
◎IMDb评分  5/10 from 5824 users
◎IMDb链接  https://www.imdb.com/title/tt0760187/
◎豆瓣评分 4.9/10 from 223 users
◎豆瓣链接 https://movie.douban.com/subject/1923488/
◎片  长 USA: 93 分钟
◎导  演 大卫·阿奎特 David Arquette
◎编  剧 大卫·阿奎特 David Arquette
◎主  演 托马斯·简 Thomas Jane
       卢卡斯·哈斯 Lukas Haas
       Ben Gardiner
       Tom Goldrup
       Richard Reicheg
       Angelo Moore
       杰森·多灵 Josh Hammond
       Norwood Fisher
       里奇蒙德·阿奎特  Richmond Arquette
       帕兹·德拉维尔塔 Paz de la Huerta
       保罗·雷宾斯 Paul Reubens
       巴萨扎·盖提 Balthazar Getty
       玛莎·托马森 Marsha Thomason
       杰森·缪斯 Jason Mewes
       大卫·阿奎特 David Arquette
       杰米·金 Jaime King
       瑞克·欧弗顿 Rick Overton
       柯特妮·考克斯 Courteney Cox
       维龙·佩恩 Waylon Payne
◎标  签 可骇 | 美国 | 惊悚 | 政治 | 美国电影 | 我看过的电影 | 我看过的可骇电影 | 我看过的英语电影
◎简  介


  少年不知愁滋味。某地红杉森林正在举行一个露天音乐会,青年男女聚在一路笑语欢歌,花天酒地。一伙嬉皮士偷偷潜入森林要地,筹算举行一个以海洛因和大麻为主题的周末狂欢派对。他们的喧哗吵醒了居住在林中的老太婆,这个戴着里根面具的妇人向嬉皮士们展开血腥追杀……
  
  本片为暗黑影业“8部可骇致死的电影”系列中的一部,因毒品、暴力、血型等元素被MPAA定为R级,片名Tripper取自里根的绰号Gipper的谐音。影片公映日为4月20日,420暗指大麻。
  1. Video
  2. ID                                       : 1
  3. Format                                   : AVC
  4. Format/Info                              : Advanced Video Codec
  5. Format profile                           : [email protected]
  6. Format settings                          : CABAC / 4 Ref Frames
  7. Format settings, CABAC                   : Yes
  8. Format settings, Reference frames        : 4 frames
  9. Codec ID                                 : V_MPEG4/ISO/AVC
  10. Duration                                 : 1 h 37 min
  11. Bit rate                                 : 15.4 Mb/s
  12. Width                                    : 1 920 pixels
  13. Height                                   : 1 080 pixels
  14. Display aspect ratio                     : 16:9
  15. Frame rate mode                          : Constant
  16. Frame rate                               : 23.976 (24000/1001/189150) FPS
  17. Color space                              : YUV
  18. Chroma subsampling                       : 4:2:0
  19. Bit depth                                : 8 bits
  20. Scan type                                : Progressive
  21. Bits/(Pixel*Frame)                       : 0.310
  22. Stream size                              : 10.5 GiB (89%)
  23. Writing library                          : x264 core 115 r1947 b5a8ad7
  24. Encoding settings                        : cabac=1 / ref=4 / deblock=1:0:0 / analyse=0x3:0x113 / me=umh / subme=7 / psy=1 / psy_rd=1.00:0.00 / mixed_ref=1 / me_range=16 / chroma_me=0 / trellis=1 / 8x8dct=1 / cqm=0 / deadzone=21,11 / fast_pskip=0 / chroma_qp_offset=-2 / threads=6 / sliced_threads=0 / nr=0 / decimate=1 / interlaced=0 / bluray_compat=0 / constrained_intra=0 / bframes=3 / b_pyramid=2 / b_adapt=1 / b_bias=0 / direct=1 / weightb=1 / open_gop=0 / weightp=2 / keyint=250 / keyint_min=23 / scenecut=40 / intra_refresh=0 / rc_lookahead=40 / rc=crf / mbtree=1 / crf=20.0 / qcomp=0.60 / qpmin=0 / qpmax=69 / qpstep=4 / ip_ratio=1.40 / aq=1:1.00
  25. Default                                  : Yes
  26. Forced                                   : No

  27. Audio
  28. ID                                       : 2
  29. Format                                   : DTS
  30. Format/Info                              : Digital Theater Systems
  31. Codec ID                                 : A_DTS
  32. Duration                                 : 1 h 37 min
  33. Bit rate mode                            : Constant
  34. Bit rate                                 : 1 509 kb/s
  35. Channel(s)                               : 6 channels
  36. Channel layout                           : C L R Ls Rs LFE
  37. Sampling rate                            : 48.0 kHz
  38. Frame rate                               : 93.750 FPS (512 SPF)
  39. Bit depth                                : 24 bits
  40. Compression mode                         : Lossy
  41. Stream size                              : 1.02 GiB (9%)
  42. Language                                 : English
  43. Default                                  : No
  44. Forced                                   : No

  45. Menu
  46. 00:00:00.000                             : en:00:00:00.000
  47. 00:08:23.211                             : en:00:08:23.211
  48. 00:18:10.965                             : en:00:18:10.965
  49. 00:23:35.581                             : en:00:23:35.581
  50. 00:34:39.911                             : en:00:34:39.911
  51. 00:40:49.113                             : en:00:40:49.113
  52. 00:47:35.978                             : en:00:47:35.978
  53. 00:58:20.372                             : en:00:58:20.372
  54. 01:06:29.903                             : en:01:06:29.903
  55. 01:15:32.027                             : en:01:15:32.027
  56. 01:22:36.660                             : en:01:22:36.660
  57. 01:30:04.357                             : en:01:30:04.357
复制代码









                                       
                                       

                                       
                                       
                                       




回复

使用道具 举报

懒得打字嘛,点击右侧快捷回复 【右侧内容,后台自定义】
您需要登录后才可以回帖 登录 | 立即加入

本版积分规则

Archiver|小黑屋| 蓝光电影网 |网站地图

Copyright © 2021 Comsenz Inc. Powered by 蓝光电影网

蓝光电影网

本站内容由用户自主分享和转载自互联网,转载目的在于传递更多信息,并不代表本网赞同其观点和对其真实性负责。

如有侵权、违反国家法律政策行为,请联系我们,我们会第一时间及时清除和处理!

举报反馈邮箱:[email protected]

快速回复 返回顶部 返回列表