找回密码

蓝光电影网

查看: 19|回复: 0

[惊悚] 你躯体之泪的诡异颜色 The.Strange.Color.of.Your.Bodys.Tears.2013.720p.BluRay.x264-USURY 5.59GB

[复制链接]
蓝光币
382
发表于 2021-5-31 09:02:25 | 显示全部楼层 |阅读模式


◎译  名 你躯体之泪的诡异色彩/The Strange Color of Your Body’s Tears/妖夜迷情
◎片  名 L'étrange couleur des larmes de ton corps
◎年  代 2013
◎产  地 比利时,法国,卢森堡
◎类  别 惊悚
◎语  言 法语
◎上映日期 2014-08-29(美国)
◎豆瓣评分 6.4/10 from 178 users
◎豆瓣链接 https://movie.douban.com/subject/23204773/
◎片  长 102分钟
◎导  演 布鲁诺·福扎尼 Bruno Forzani / 伊莲娜·卡泰特 Hélène Cattet
◎编  剧 伊莲娜·卡泰特 Hélène Cattet / 布鲁诺·福扎尼 Bruno Forzani
◎主  演 克劳斯·坦格 Klaus Tange
       汉斯·德·芒特 Hans de Munter
◎标  签 惊悚 | 法国 | 可骇 | 比利时 | 法国电影 | 2013 | 卢森堡 | 比利時
◎简  介


  铅黄电影。有点尝试性的Cult片,《安娜迷宫》的导演又给大师带来感官盛宴。怪奇公寓妇女失落,墙后房间通往童年,礼盒爬出帽子刺客,壁纸升沉愿望地道;时空循环自我谋杀,鹤发初恋听诊凶案,糖果夹杂玻璃碎片,爆头画皮血流满屋……
◎获奖情况
  第66届洛迦诺国际电影节 ?(2013)
  金豹奖(提名) 伊莲娜·卡泰特?/?布鲁诺·福扎尼
  1. Video
  2. ID                                       : 1
  3. Format                                   : AVC
  4. Format/Info                              : Advanced Video Codec
  5. Format profile                           : [email protected]
  6. Format settings                          : CABAC / 12 Ref Frames
  7. Format settings, CABAC                   : Yes
  8. Format settings, Reference frames        : 12 frames
  9. Codec ID                                 : V_MPEG4/ISO/AVC
  10. Duration                                 : 1 h 41 min
  11. Bit rate                                 : 7 213 kb/s
  12. Width                                    : 1 280 pixels
  13. Height                                   : 544 pixels
  14. Display aspect ratio                     : 2.35:1
  15. Frame rate mode                          : Constant
  16. Frame rate                               : 24.000 FPS
  17. Color space                              : YUV
  18. Chroma subsampling                       : 4:2:0
  19. Bit depth                                : 8 bits
  20. Scan type                                : Progressive
  21. Bits/(Pixel*Frame)                       : 0.432
  22. Stream size                              : 5.13 GiB (92%)
  23. Writing library                          : x264 core 163 r3059 b684ebe
  24. Encoding settings                        : cabac=1 / ref=12 / deblock=1:-3:-3 / analyse=0x3:0x133 / me=umh / subme=10 / psy=1 / psy_rd=1.00:0.15 / mixed_ref=1 / me_range=24 / chroma_me=1 / trellis=2 / 8x8dct=1 / cqm=0 / deadzone=21,11 / fast_pskip=1 / chroma_qp_offset=-3 / threads=17 / lookahead_threads=2 / sliced_threads=0 / nr=0 / decimate=1 / interlaced=0 / bluray_compat=0 / constrained_intra=0 / bframes=8 / b_pyramid=2 / b_adapt=2 / b_bias=0 / direct=3 / weightb=1 / open_gop=0 / weightp=2 / keyint=250 / keyint_min=24 / scenecut=40 / intra_refresh=0 / rc_lookahead=60 / rc=crf / mbtree=1 / crf=16.0 / qcomp=0.60 / qpmin=0 / qpmax=69 / qpstep=4 / ip_ratio=1.40 / aq=3:0.50
  25. Language                                 : English
  26. Default                                  : Yes
  27. Forced                                   : No
  28. Color range                              : Limited
  29. Matrix coefficients                      : BT.709

  30. Audio
  31. ID                                       : 2
  32. Format                                   : AC-3
  33. Format/Info                              : Audio Coding 3
  34. Commercial name                          : Dolby Digital
  35. Codec ID                                 : A_AC3
  36. Duration                                 : 1 h 41 min
  37. Bit rate mode                            : Constant
  38. Bit rate                                 : 640 kb/s
  39. Channel(s)                               : 6 channels
  40. Channel layout                           : L R C LFE Ls Rs
  41. Sampling rate                            : 48.0 kHz
  42. Frame rate                               : 31.250 FPS (1536 SPF)
  43. Compression mode                         : Lossy
  44. Stream size                              : 466 MiB (8%)
  45. Language                                 : French
  46. Service kind                             : Complete Main
  47. Default                                  : Yes
  48. Forced                                   : No

  49. Text #1
  50. ID                                       : 3
  51. Format                                   : UTF-8
  52. Codec ID                                 : S_TEXT/UTF8
  53. Codec ID/Info                            : UTF-8 Plain Text
  54. Duration                                 : 1 h 36 min
  55. Bit rate                                 : 12 b/s
  56. Count of elements                        : 318
  57. Stream size                              : 8.58 KiB (0%)
  58. Title                                    : English
  59. Language                                 : English
  60. Default                                  : Yes
  61. Forced                                   : Yes

  62. Text #2
  63. ID                                       : 4
  64. Format                                   : PGS
  65. Muxing mode                              : zlib
  66. Codec ID                                 : S_HDMV/PGS
  67. Codec ID/Info                            : Picture based subtitle format used on BDs/HD-DVDs
  68. Duration                                 : 1 h 38 min
  69. Bit rate                                 : 1 485 b/s
  70. Count of elements                        : 637
  71. Stream size                              : 1.05 MiB (0%)
  72. Title                                    : English
  73. Language                                 : English
  74. Default                                  : No
  75. Forced                                   : No

  76. Menu
  77. 00:00:00.000                             : en:00:00:00.000
  78. 00:08:18.833                             : en:00:08:18.833
  79. 00:15:36.875                             : en:00:15:36.875
  80. 00:23:12.625                             : en:00:23:12.625
  81. 00:33:14.000                             : en:00:33:14.000
  82. 00:39:54.500                             : en:00:39:54.500
  83. 00:49:01.458                             : en:00:49:01.458
  84. 00:55:58.125                             : en:00:55:58.125
  85. 01:05:30.542                             : en:01:05:30.542
  86. 01:12:35.292                             : en:01:12:35.292
  87. 01:20:48.625                             : en:01:20:48.625
  88. 01:28:18.000                             : en:01:28:18.000
复制代码





                                       
                                       

                                       
                                       
                                       




回复

使用道具 举报

懒得打字嘛,点击右侧快捷回复 【右侧内容,后台自定义】
您需要登录后才可以回帖 登录 | 立即加入

本版积分规则

Archiver|小黑屋| 蓝光电影网 |网站地图

Copyright © 2021 Comsenz Inc. Powered by 蓝光电影网

蓝光电影网

本站内容由用户自主分享和转载自互联网,转载目的在于传递更多信息,并不代表本网赞同其观点和对其真实性负责。

如有侵权、违反国家法律政策行为,请联系我们,我们会第一时间及时清除和处理!

举报反馈邮箱:[email protected]

快速回复 返回顶部 返回列表