找回密码

蓝光电影网

查看: 14|回复: 0

[喜剧] 恐惧之城 Fear.City.A.Family-Style.Comedy.1994.1080p.BluRay.x264-USURY 9.84GB

[复制链接]
蓝光币
386
发表于 2020-8-21 12:03:37 | 显示全部楼层 |阅读模式


◎译  名 恐惧之城/Fear City: A Family-Style Comedy
◎片  名 La cité de la peur
◎年  代 1994
◎产  地 法国
◎类  别 笑剧
◎语  言 法语,英语,瑞典语
◎上映日期 1994-03-09
◎IMDb评分  7.6/10 from 8227 users
◎IMDb链接  https://www.imdb.com/title/tt0109440/
◎豆瓣评分 7.6/10 from 101 users
◎豆瓣链接 https://movie.douban.com/subject/2969150/
◎片  长 93 分钟
◎编  剧 阿兰·夏巴 Alain Chabat / 多米尼克·费赫加 Dominique Farrugia / 尚塔尔·罗比 Chantal Lauby
◎主  演 尚塔尔·罗比 Chantal Lauby
       热拉尔·达尔蒙 Gérard Darmon
       阿兰·夏巴 Alain Chabat
       多米尼克·费赫加 Dominique Farrugia
       瓦莱丽·勒梅西埃 Valérie Lemercier
       切基·卡尤 Tchéky Karyo
       让-皮埃尔·巴克里 Jean-Pierre Bacri
       丹尼尔·盖林 Daniel Gélin
       埃迪·米切尔 Eddy Mitchell
       让-克里斯托夫·布维 Jean-Christophe Bouvet
       马克.德.容 Marc de Jonge
       奥利维耶·多兰 Olivier Doran
       克里斯蒂安·加奇妙 Christian Gazio
       米歇尔·阿扎纳维西于斯 Michel Hazanavicius
       亨利·德蒂雷纳 Henri de Turenne
       皮埃尔·莱斯库尔 Pierre Lescure
       罗姗娜·阿奎特 Rosanna Arquette
       丹尼尔·托斯坎·杜普兰蒂尔 Daniel Toscan du Plantier
       帕特里斯·拉丰 Patrice Laffont
       让-皮埃尔·斯隆 Jean-Pierre Thorn
       多米尼克·贝纳尔 Dominique Besnehard
       Pierre Amzallag
       萨姆·卡曼 Sam Karmann
       伊莲娜·德·芙吉霍尔 Hélène de Fougerolles
       阿尔蒂斯·德·彭居埃恩 Artus de Penguern
       Dave
◎标  签 法国 | 笑剧 | 法国电影 | 电影 | 搞笑 | 1994 | 剧情 | 北京法盟图书馆
◎简  介


  A second-class horror movie has to be shown at Cannes Film Festival, but, before each screening, the projectionist is killed by a mysterious fellow, with hammer and sickle, just as it happens in the film to be shown...
  1. Video
  2. ID                                       : 1
  3. Format                                   : AVC
  4. Format/Info                              : Advanced Video Codec
  5. Format profile                           : [email protected]
  6. Format settings                          : CABAC / 5 Ref Frames
  7. Format settings, CABAC                   : Yes
  8. Format settings, Reference frames        : 5 frames
  9. Codec ID                                 : V_MPEG4/ISO/AVC
  10. Duration                                 : 1 h 40 min
  11. Bit rate                                 : 12.5 Mb/s
  12. Width                                    : 1 920 pixels
  13. Height                                   : 808 pixels
  14. Display aspect ratio                     : 2.40:1
  15. Frame rate mode                          : Constant
  16. Frame rate                               : 24.000 FPS
  17. Color space                              : YUV
  18. Chroma subsampling                       : 4:2:0
  19. Bit depth                                : 8 bits
  20. Scan type                                : Progressive
  21. Bits/(Pixel*Frame)                       : 0.336
  22. Stream size                              : 8.78 GiB (89%)
  23. Writing library                          : x264 core 157 r2969 d4099dd
  24. Encoding settings                        : cabac=1 / ref=5 / deblock=1:-3:-3 / analyse=0x3:0x133 / me=umh / subme=9 / psy=1 / psy_rd=1.00:0.00 / mixed_ref=1 / me_range=16 / chroma_me=1 / trellis=2 / 8x8dct=1 / cqm=0 / deadzone=21,11 / fast_pskip=0 / chroma_qp_offset=-2 / threads=18 / lookahead_threads=1 / sliced_threads=0 / nr=0 / decimate=1 / interlaced=0 / bluray_compat=0 / constrained_intra=0 / bframes=3 / b_pyramid=2 / b_adapt=1 / b_bias=0 / direct=3 / weightb=1 / open_gop=0 / weightp=2 / keyint=240 / keyint_min=24 / scenecut=40 / intra_refresh=0 / rc_lookahead=50 / rc=2pass / mbtree=1 / bitrate=12521 / ratetol=1.0 / qcomp=0.60 / qpmin=0 / qpmax=69 / qpstep=4 / cplxblur=20.0 / qblur=0.5 / ip_ratio=1.40 / aq=1:1.00
  25. Language                                 : English
  26. Default                                  : Yes
  27. Forced                                   : No

  28. Audio
  29. ID                                       : 2
  30. Format                                   : DTS
  31. Format/Info                              : Digital Theater Systems
  32. Codec ID                                 : A_DTS
  33. Duration                                 : 1 h 40 min
  34. Bit rate mode                            : Constant
  35. Bit rate                                 : 1 509 kb/s
  36. Channel(s)                               : 6 channels
  37. Channel layout                           : C L R Ls Rs LFE
  38. Sampling rate                            : 48.0 kHz
  39. Frame rate                               : 93.750 FPS (512 SPF)
  40. Bit depth                                : 24 bits
  41. Compression mode                         : Lossy
  42. Stream size                              : 1.06 GiB (11%)
  43. Language                                 : French
  44. Default                                  : Yes
  45. Forced                                   : No

  46. Text #1
  47. ID                                       : 3
  48. Format                                   : UTF-8
  49. Codec ID                                 : S_TEXT/UTF8
  50. Codec ID/Info                            : UTF-8 Plain Text
  51. Duration                                 : 1 h 38 min
  52. Bit rate                                 : 49 b/s
  53. Count of elements                        : 1228
  54. Stream size                              : 36.1 KiB (0%)
  55. Title                                    : English
  56. Language                                 : English
  57. Default                                  : Yes
  58. Forced                                   : Yes

  59. Text #2
  60. ID                                       : 4
  61. Format                                   : UTF-8
  62. Codec ID                                 : S_TEXT/UTF8
  63. Codec ID/Info                            : UTF-8 Plain Text
  64. Duration                                 : 1 h 40 min
  65. Bit rate                                 : 64 b/s
  66. Count of elements                        : 1749
  67. Stream size                              : 47.1 KiB (0%)
  68. Title                                    : French
  69. Language                                 : French
  70. Default                                  : No
  71. Forced                                   : No

  72. Menu
  73. 00:00:00.000                             : en:00:00:00.000
  74. 00:08:00.333                             : en:00:08:00.333
  75. 00:17:02.833                             : en:00:17:02.833
  76. 00:24:29.250                             : en:00:24:29.250
  77. 00:31:44.250                             : en:00:31:44.250
  78. 00:41:04.250                             : en:00:41:04.250
  79. 00:48:37.000                             : en:00:48:37.000
  80. 00:56:42.833                             : en:00:56:42.833
  81. 01:04:50.792                             : en:01:04:50.792
  82. 01:11:45.833                             : en:01:11:45.833
  83. 01:20:21.833                             : en:01:20:21.833
  84. 01:27:53.958                             : en:01:27:53.958
复制代码




                                       
                                       

                                       
                                       
                                       




回复

使用道具 举报

懒得打字嘛,点击右侧快捷回复 【右侧内容,后台自定义】
您需要登录后才可以回帖 登录 | 立即加入

本版积分规则

Archiver|小黑屋| 蓝光电影网 |网站地图

Copyright © 2021 Comsenz Inc. Powered by 蓝光电影网

蓝光电影网

本站内容由用户自主分享和转载自互联网,转载目的在于传递更多信息,并不代表本网赞同其观点和对其真实性负责。

如有侵权、违反国家法律政策行为,请联系我们,我们会第一时间及时清除和处理!

举报反馈邮箱:[email protected]

快速回复 返回顶部 返回列表