找回密码

蓝光电影网

查看: 13|回复: 0

[动作] 超能追缉/你我皆凡人 Mortal.2020.720p.BluRay.x264-PiGNUS 3.24GB

[复制链接]
蓝光币
426
发表于 2020-11-12 09:26:05 | 显示全部楼层 |阅读模式


◎译  名 超能追缉/你我皆凡人/凡人/凡人烦人/超能追缉(台)
◎片  名 Mortal
◎年  代 2020
◎产  地 挪威,美国,英国
◎类  别 行动 / 奇异 / 冒险
◎语  言 挪威语,英语
◎上映日期 2020-02-28(挪威)
◎IMDb评分  5.7/10 from 2981 users
◎IMDb链接  https://www.imdb.com/title/tt5715066/
◎豆瓣评分 5.5/10 from 948 users
◎豆瓣链接 https://movie.douban.com/subject/26791681/
◎片  长 104分钟
◎导  演 安德烈·艾弗道夫 André ?vredal
◎编  剧 安德烈·艾弗道夫 André ?vredal
◎主  演 纳特·沃尔夫 Nat Wolff
       亚瑟·哈卡拉赫蒂 Arthur Hakalahti
       珀·埃吉尔·埃斯克 Per Egil Aske
       Per Frisch
       Slawomir Poplawski
◎标  签 奇异 | 挪威 | 科幻 | 2020 | 挪威电影 | 行动 | 电影 | 美国
◎简  介


  故事报告一位挪威裔奥秘男人,让碰到自己的少年忽然自燃,并被控谋杀罪名。在接管审问之前,一位心理医师惊人发现,他居然具有没法控制的超自然才能,而这股气力能够来自于北欧神话,因而她决议帮助这位奥秘男人逃狱,一同踏上寻觅真相的旅途。
  1. Video
  2. ID                                       : 1
  3. Format                                   : AVC
  4. Format/Info                              : Advanced Video Codec
  5. Format profile                           : [email protected]
  6. Format settings                          : CABAC / 8 Ref Frames
  7. Format settings, CABAC                   : Yes
  8. Format settings, Reference frames        : 8 frames
  9. Codec ID                                 : V_MPEG4/ISO/AVC
  10. Duration                                 : 1 h 44 min
  11. Bit rate                                 : 3 760 kb/s
  12. Width                                    : 1 280 pixels
  13. Height                                   : 536 pixels
  14. Display aspect ratio                     : 2.40:1
  15. Frame rate mode                          : Constant
  16. Frame rate                               : 23.976 (24000/1001/189150) FPS
  17. Color space                              : YUV
  18. Chroma subsampling                       : 4:2:0
  19. Bit depth                                : 8 bits
  20. Scan type                                : Progressive
  21. Bits/(Pixel*Frame)                       : 0.229
  22. Stream size                              : 2.75 GiB (85%)
  23. Writing library                          : x264 core 161 r3027 4121277
  24. Encoding settings                        : cabac=1 / ref=8 / deblock=1:-3:-3 / analyse=0x3:0x133 / me=umh / subme=9 / psy=1 / psy_rd=1.00:0.00 / mixed_ref=1 / me_range=16 / chroma_me=1 / trellis=2 / 8x8dct=1 / cqm=0 / deadzone=21,11 / fast_pskip=1 / chroma_qp_offset=-2 / threads=17 / lookahead_threads=1 / sliced_threads=0 / nr=0 / decimate=1 / interlaced=0 / bluray_compat=0 / constrained_intra=0 / bframes=3 / b_pyramid=2 / b_adapt=2 / b_bias=0 / direct=3 / weightb=1 / open_gop=0 / weightp=2 / keyint=250 / keyint_min=23 / scenecut=40 / intra_refresh=0 / rc_lookahead=60 / rc=crf / mbtree=1 / crf=14.5 / qcomp=0.60 / qpmin=0 / qpmax=69 / qpstep=4 / ip_ratio=1.40 / aq=1:1.00
  25. Default                                  : Yes
  26. Forced                                   : No

  27. Audio
  28. ID                                       : 2
  29. Format                                   : AC-3
  30. Format/Info                              : Audio Coding 3
  31. Commercial name                          : Dolby Digital
  32. Codec ID                                 : A_AC3
  33. Duration                                 : 1 h 44 min
  34. Bit rate mode                            : Constant
  35. Bit rate                                 : 640 kb/s
  36. Channel(s)                               : 6 channels
  37. Channel layout                           : L R C LFE Ls Rs
  38. Sampling rate                            : 48.0 kHz
  39. Frame rate                               : 31.250 FPS (1536 SPF)
  40. Compression mode                         : Lossy
  41. Stream size                              : 480 MiB (14%)
  42. Language                                 : Norwegian
  43. Service kind                             : Complete Main
  44. Default                                  : Yes
  45. Forced                                   : No

  46. Text #1
  47. ID                                       : 3
  48. Format                                   : UTF-8
  49. Codec ID                                 : S_TEXT/UTF8
  50. Codec ID/Info                            : UTF-8 Plain Text
  51. Duration                                 : 1 h 28 min
  52. Bit rate                                 : 11 b/s
  53. Count of elements                        : 176
  54. Stream size                              : 7.22 KiB (0%)
  55. Title                                    : English Forced
  56. Language                                 : English
  57. Default                                  : Yes
  58. Forced                                   : Yes

  59. Text #2
  60. ID                                       : 4
  61. Format                                   : PGS
  62. Muxing mode                              : zlib
  63. Codec ID                                 : S_HDMV/PGS
  64. Codec ID/Info                            : Picture based subtitle format used on BDs/HD-DVDs
  65. Duration                                 : 1 h 36 min
  66. Bit rate                                 : 19.8 kb/s
  67. Count of elements                        : 1288
  68. Stream size                              : 13.7 MiB (0%)
  69. Title                                    : English SDH
  70. Language                                 : English
  71. Default                                  : No
  72. Forced                                   : No

  73. Text #3
  74. ID                                       : 5
  75. Format                                   : PGS
  76. Muxing mode                              : zlib
  77. Codec ID                                 : S_HDMV/PGS
  78. Codec ID/Info                            : Picture based subtitle format used on BDs/HD-DVDs
  79. Duration                                 : 1 h 36 min
  80. Bit rate                                 : 14.6 kb/s
  81. Count of elements                        : 972
  82. Stream size                              : 10.1 MiB (0%)
  83. Title                                    : Spanish
  84. Language                                 : Spanish
  85. Default                                  : No
  86. Forced                                   : No

  87. Text #4
  88. ID                                       : 6
  89. Format                                   : PGS
  90. Muxing mode                              : zlib
  91. Codec ID                                 : S_HDMV/PGS
  92. Codec ID/Info                            : Picture based subtitle format used on BDs/HD-DVDs
  93. Duration                                 : 1 h 28 min
  94. Bit rate                                 : 6 634 b/s
  95. Count of elements                        : 352
  96. Stream size                              : 4.22 MiB (0%)
  97. Title                                    : English
  98. Language                                 : English
  99. Default                                  : No
  100. Forced                                   : No

  101. Menu
  102. 00:00:00.000                             : en:Chapter 01
  103. 00:06:45.280                             : en:Chapter 02
  104. 00:11:46.539                             : en:Chapter 03
  105. 00:15:19.794                             : en:Chapter 04
  106. 00:26:52.778                             : en:Chapter 05
  107. 00:34:49.170                             : en:Chapter 06
  108. 00:38:54.415                             : en:Chapter 07
  109. 00:42:14.699                             : en:Chapter 08
  110. 00:47:50.117                             : en:Chapter 09
  111. 00:51:39.555                             : en:Chapter 10
  112. 00:55:32.788                             : en:Chapter 11
  113. 01:06:38.119                             : en:Chapter 12
  114. 01:15:51.756                             : en:Chapter 13
  115. 01:20:12.558                             : en:Chapter 14
  116. 01:28:41.441                             : en:Chapter 15
  117. 01:34:51.394                             : en:Chapter 16
复制代码




                                       
                                       

                                       
                                       
                                       




回复

使用道具 举报

懒得打字嘛,点击右侧快捷回复 【右侧内容,后台自定义】
您需要登录后才可以回帖 登录 | 立即加入

本版积分规则

Archiver|小黑屋| 蓝光电影网 |网站地图

Copyright © 2021 Comsenz Inc. Powered by 蓝光电影网

蓝光电影网

本站内容由用户自主分享和转载自互联网,转载目的在于传递更多信息,并不代表本网赞同其观点和对其真实性负责。

如有侵权、违反国家法律政策行为,请联系我们,我们会第一时间及时清除和处理!

举报反馈邮箱:[email protected]

快速回复 返回顶部 返回列表