找回密码

蓝光电影网

查看: 27|回复: 0

[恐怖] 马拉萨尼亚32号鬼宅 Malasana.32.2020.SPANISH.1080p.BluRay.x264.DTS-FGT 9.51GB

[复制链接]
蓝光币
426
发表于 2020-11-24 09:42:59 | 显示全部楼层 |阅读模式


◎译  名 马拉萨尼亚32号鬼宅/32 Malasana Street/凶屋32(港)
◎片  名 Malasa?a 32
◎年  代 2020
◎产  地 西班牙
◎类  别 可骇
◎语  言 西班牙语
◎上映日期 2020-01-17(西班牙)
◎IMDb评分  5.5/10 from 1917 users
◎IMDb链接  https://www.imdb.com/title/tt10952782/
◎豆瓣评分 5.7/10 from 392 users
◎豆瓣链接 https://movie.douban.com/subject/34825863/
◎片  长 104分钟
◎编  剧 拉蒙·坎波斯 Ramón Campos / 盖马·R·内拉 Gema R. Neira
◎主  演 贝戈尼亚·瓦加斯 Bego?a Vargas
       比雅·塞古拉 Bea Segura
       塞尔希奥·卡斯特利亚诺斯 Sergio Castellanos
       哈维尔·博泰特 Javier Botet
       Rosa álvarez
◎标  签 可骇 | 西班牙 | 鬼屋 | 惊悚 | 灵异 | 2020 | 西班牙电影 | 华纳
◎简  介


  故事报告70年月的马德里,马诺洛和坎德拉带着三个孩子和祖父费尔明假寓在马拉萨尼亚的马德里四周。这一行为意味着他们抛弃曩昔以及在城镇中的生活。马德里是一个周全过渡的大城市,也是正在寻觅的繁华的好地方。可是,奥尔梅多一家人不晓得的是,他们买的屋子将成为他们最糟糕的噩梦。
  1. Video
  2. ID                                       : 1
  3. Format                                   : AVC
  4. Format/Info                              : Advanced Video Codec
  5. Format profile                           : [email protected]
  6. Format settings                          : CABAC / 4 Ref Frames
  7. Format settings, CABAC                   : Yes
  8. Format settings, Reference frames        : 4 frames
  9. Codec ID                                 : V_MPEG4/ISO/AVC
  10. Duration                                 : 1 h 44 min
  11. Bit rate                                 : 11.5 Mb/s
  12. Width                                    : 1 920 pixels
  13. Height                                   : 804 pixels
  14. Display aspect ratio                     : 2.40:1
  15. Frame rate mode                          : Constant
  16. Frame rate                               : 24.000 FPS
  17. Color space                              : YUV
  18. Chroma subsampling                       : 4:2:0
  19. Bit depth                                : 8 bits
  20. Scan type                                : Progressive
  21. Bits/(Pixel*Frame)                       : 0.310
  22. Stream size                              : 8.41 GiB (88%)
  23. Title                                    : Malasana.32.2020.SPANISH.1080p.BluRay.x264.DTS-FGT
  24. Writing library                          : x264 core 148 r2795M aaa9aa8
  25. Encoding settings                        : cabac=1 / ref=4 / deblock=1:-2:-2 / analyse=0x3:0x113 / me=umh / subme=9 / psy=1 / psy_rd=1.00:0.15 / mixed_ref=1 / me_range=16 / chroma_me=1 / trellis=2 / 8x8dct=1 / cqm=0 / deadzone=21,11 / fast_pskip=1 / chroma_qp_offset=-3 / threads=24 / lookahead_threads=3 / sliced_threads=0 / nr=0 / decimate=1 / interlaced=0 / bluray_compat=0 / constrained_intra=0 / bframes=3 / b_pyramid=2 / b_adapt=1 / b_bias=0 / direct=3 / weightb=1 / open_gop=0 / weightp=2 / keyint=250 / keyint_min=25 / scenecut=40 / intra_refresh=0 / rc_lookahead=50 / rc=2pass / mbtree=1 / bitrate=11500 / ratetol=1.0 / qcomp=0.60 / qpmin=0 / qpmax=69 / qpstep=4 / cplxblur=20.0 / qblur=0.5 / vbv_maxrate=31250 / vbv_bufsize=31250 / nal_hrd=none / filler=0 / ip_ratio=1.40 / aq=1:1.00
  26. Language                                 : Spanish
  27. Default                                  : Yes
  28. Forced                                   : No
  29. Audio
  30. ID                                       : 2
  31. Format                                   : DTS
  32. Format/Info                              : Digital Theater Systems
  33. Codec ID                                 : A_DTS
  34. Duration                                 : 1 h 44 min
  35. Bit rate mode                            : Constant
  36. Bit rate                                 : 1 509 kb/s
  37. Channel(s)                               : 6 channels
  38. Channel layout                           : C L R Ls Rs LFE
  39. Sampling rate                            : 48.0 kHz
  40. Frame rate                               : 93.750 FPS (512 SPF)
  41. Bit depth                                : 16 bits
  42. Compression mode                         : Lossy
  43. Stream size                              : 1.10 GiB (12%)
  44. Title                                    : Malasana.32.2020.SPANISH.1080p.BluRay.x264.DTS-FGT
  45. Language                                 : Spanish
  46. Default                                  : Yes
  47. Forced                                   : No
  48. Text
  49. ID                                       : 3
  50. Format                                   : UTF-8
  51. Codec ID                                 : S_TEXT/UTF8
  52. Codec ID/Info                            : UTF-8 Plain Text
  53. Duration                                 : 1 h 38 min
  54. Bit rate                                 : 28 b/s
  55. Count of elements                        : 651
  56. Stream size                              : 20.7 KiB (0%)
  57. Language                                 : English
  58. Default                                  : Yes
  59. Forced                                   : No
  60. Menu
  61. 00:00:00.000                             : en:00:00:00.000
  62. 00:07:47.208                             : en:00:07:47.208
  63. 00:14:34.542                             : en:00:14:34.542
  64. 00:23:37.208                             : en:00:23:37.208
  65. 00:34:34.125                             : en:00:34:34.125
  66. 00:44:09.417                             : en:00:44:09.417
  67. 00:52:06.000                             : en:00:52:06.000
  68. 01:01:42.875                             : en:01:01:42.875
  69. 01:12:40.292                             : en:01:12:40.292
  70. 01:20:26.667                             : en:01:20:26.667
  71. 01:27:36.292                             : en:01:27:36.292
  72. 01:39:03.875                             : en:01:39:03.875
复制代码





                                       
                                       

                                       
                                       
                                       




回复

使用道具 举报

懒得打字嘛,点击右侧快捷回复 【右侧内容,后台自定义】
您需要登录后才可以回帖 登录 | 立即加入

本版积分规则

Archiver|小黑屋| 蓝光电影网 |网站地图

Copyright © 2021 Comsenz Inc. Powered by 蓝光电影网

蓝光电影网

本站内容由用户自主分享和转载自互联网,转载目的在于传递更多信息,并不代表本网赞同其观点和对其真实性负责。

如有侵权、违反国家法律政策行为,请联系我们,我们会第一时间及时清除和处理!

举报反馈邮箱:[email protected]

快速回复 返回顶部 返回列表