找回密码

蓝光电影网

查看: 17|回复: 0

[惊悚] 如梦初醒 Diary.Of.Evil.2019.720p.BluRay.x264-GETiT 2.19GB

[复制链接]
蓝光币
386
发表于 2021-5-22 17:42:30 | 显示全部楼层 |阅读模式
[img][/img]

◎译  名 恍然大悟/Do Not Read
◎片  名 Wake Up
◎年  代 2019
◎产  地 美国
◎类  别 惊悚 / 可骇
◎语  言 英语
◎上映日期 2019-01-09(美国)
◎豆瓣评分 /10 from 0 users
◎豆瓣链接 https://movie.douban.com/subject/33402660/
◎片  长 77分钟
◎标  签 惊悚 | 可骇 | 美国 | 灵异 | 阿飘不甘孤单 | 美国电影 | 没印象 | 心陷囹圉
◎简  介


  當一位精神科醫生研讨年輕女孩莫莉的日記,找出她謀殺整個家庭的缘由時,他也開始堕入失眠和混亂的狀態,這也是導致她落空明智的缘由,一連串不成思議的事务接連發生…
  1. Video
  2. ID                                       : 1
  3. Format                                   : AVC
  4. Format/Info                              : Advanced Video Codec
  5. Format profile                           : [email protected]
  6. Format settings                          : CABAC / 8 Ref Frames
  7. Format settings, CABAC                   : Yes
  8. Format settings, Reference frames        : 8 frames
  9. Codec ID                                 : V_MPEG4/ISO/AVC
  10. Duration                                 : 1 h 18 min
  11. Bit rate                                 : 3 379 kb/s
  12. Width                                    : 1 280 pixels
  13. Height                                   : 720 pixels
  14. Display aspect ratio                     : 16:9
  15. Frame rate mode                          : Constant
  16. Frame rate                               : 23.976 (24000/1001/189150) FPS
  17. Color space                              : YUV
  18. Chroma subsampling                       : 4:2:0
  19. Bit depth                                : 8 bits
  20. Scan type                                : Progressive
  21. Bits/(Pixel*Frame)                       : 0.153
  22. Stream size                              : 1.84 GiB (84%)
  23. Writing library                          : x264 core 163 r3059 b684ebe
  24. Encoding settings                        : cabac=1 / ref=8 / deblock=1:-3:-3 / analyse=0x3:0x133 / me=umh / subme=9 / psy=1 / psy_rd=1.00:0.00 / mixed_ref=1 / me_range=16 / chroma_me=1 / trellis=2 / 8x8dct=1 / cqm=0 / deadzone=21,11 / fast_pskip=1 / chroma_qp_offset=-2 / threads=18 / lookahead_threads=1 / sliced_threads=0 / nr=0 / decimate=1 / interlaced=0 / bluray_compat=0 / constrained_intra=0 / bframes=3 / b_pyramid=2 / b_adapt=2 / b_bias=0 / direct=3 / weightb=1 / open_gop=0 / weightp=2 / keyint=250 / keyint_min=23 / scenecut=40 / intra_refresh=0 / rc_lookahead=60 / rc=crf / mbtree=1 / crf=17.0 / qcomp=0.60 / qpmin=0 / qpmax=69 / qpstep=4 / ip_ratio=1.40 / aq=3:0.80
  25. Language                                 : English
  26. Default                                  : Yes
  27. Forced                                   : No
  28. Color range                              : Limited
  29. Matrix coefficients                      : BT.709

  30. Audio
  31. ID                                       : 2
  32. Format                                   : AC-3
  33. Format/Info                              : Audio Coding 3
  34. Commercial name                          : Dolby Digital
  35. Codec ID                                 : A_AC3
  36. Duration                                 : 1 h 18 min
  37. Bit rate mode                            : Constant
  38. Bit rate                                 : 640 kb/s
  39. Channel(s)                               : 6 channels
  40. Channel layout                           : L R C LFE Ls Rs
  41. Sampling rate                            : 48.0 kHz
  42. Frame rate                               : 31.250 FPS (1536 SPF)
  43. Compression mode                         : Lossy
  44. Stream size                              : 357 MiB (16%)
  45. Title                                    : ac3
  46. Language                                 : English
  47. Service kind                             : Complete Main
  48. Default                                  : Yes
  49. Forced                                   : No

  50. Menu
  51. 00:00:00.000                             : en:00:00:00.000
  52. 00:08:22.502                             : en:00:08:22.502
  53. 00:19:03.142                             : en:00:19:03.142
  54. 00:29:48.787                             : en:00:29:48.787
  55. 00:39:20.358                             : en:00:39:20.358
  56. 00:50:07.004                             : en:00:50:07.004
  57. 00:59:39.576                             : en:00:59:39.576
  58. 01:05:49.946                             : en:01:05:49.946
  59. 01:16:18.574                             : en:01:16:18.574
复制代码




                                       
                                       

                                       
                                       
                                       




回复

使用道具 举报

懒得打字嘛,点击右侧快捷回复 【右侧内容,后台自定义】
您需要登录后才可以回帖 登录 | 立即加入

本版积分规则

Archiver|小黑屋| 蓝光电影网 |网站地图

Copyright © 2021 Comsenz Inc. Powered by 蓝光电影网

蓝光电影网

本站内容由用户自主分享和转载自互联网,转载目的在于传递更多信息,并不代表本网赞同其观点和对其真实性负责。

如有侵权、违反国家法律政策行为,请联系我们,我们会第一时间及时清除和处理!

举报反馈邮箱:[email protected]

快速回复 返回顶部 返回列表