找回密码

蓝光电影网

查看: 12|回复: 0

[动作] 外星罪孽/宇宙罪孽 Cosmic.Sin.2021.1080p.BluRay.x264.DTS-HD.MA.5.1-FGT 8.69GB

[复制链接]
蓝光币
382
发表于 2021-5-13 12:47:46 | 显示全部楼层 |阅读模式


◎译  名 外星罪孽/宇宙罪孽/终极异噬界(台)
◎片  名 Cosmic Sin
◎年  代 2021
◎产  地 美国
◎类  别 行动 / 科幻 / 冒险
◎语  言 英语
◎上映日期 2021-03-01(英国收集) / 2021-03-12(美国收集)
◎IMDb评分  2.5/10 from 5366 users
◎IMDb链接  https://www.imdb.com/title/tt11762434/
◎豆瓣评分 3.2/10 from 654 users
◎豆瓣链接 https://movie.douban.com/subject/34967032/
◎片  长 88分钟
◎导  演 爱德华·德雷克 Edward Drake
◎编  剧 爱德华·德雷克 Edward Drake / 科里·拉奇 Corey Large
◎主  演 弗兰克·格里罗 Frank Grillo
       布鲁斯·威利斯 Bruce Willis
       布兰登·托马斯·李 Brandon Thomas Lee
       科里·拉奇 Corey Large
       C.J. Perry
       佩瑞·里维斯 Perrey Reeves
       洛奇林·莫罗 Lochlyn Munro
       科斯塔斯·曼迪勒 Costas Mandylor
       艾娃·德·多米尼奇 Eva De Dominici
       阿黛莱德·凯恩 Adelaide Kane
       特雷弗·格雷茨基 Trevor Gretzky
       约翰尼·梅辛纳 Johnny Messner
       卢克·威尔逊 Luke Wilson
◎标  签 科幻 | 布鲁斯·威利斯 | 2021 | 美国 | 行动 | 美国电影 | 冒险 | 电影
◎简  介


  布鲁斯·威利斯将主演科幻题材影片[外星罪孽](Cosmic Sin,暂译)。科里·拉奇、Edward Drake结合执导并配合操刀剧本。该片报告具有传染并控制人类才能的外星物种入侵地球,一群战士与科学家必须自告奋勇,为了人类而战役。
  1. Video
  2. ID                                       : 1
  3. Format                                   : AVC
  4. Format/Info                              : Advanced Video Codec
  5. Format profile                           : [email protected]
  6. Format settings                          : CABAC / 4 Ref Frames
  7. Format settings, CABAC                   : Yes
  8. Format settings, Reference frames        : 4 frames
  9. Codec ID                                 : V_MPEG4/ISO/AVC
  10. Duration                                 : 1 h 28 min
  11. Bit rate                                 : 11.5 Mb/s
  12. Width                                    : 1 920 pixels
  13. Height                                   : 804 pixels
  14. Display aspect ratio                     : 2.40:1
  15. Frame rate mode                          : Constant
  16. Frame rate                               : 23.976 (24000/1001/189150) FPS
  17. Color space                              : YUV
  18. Chroma subsampling                       : 4:2:0
  19. Bit depth                                : 8 bits
  20. Scan type                                : Progressive
  21. Bits/(Pixel*Frame)                       : 0.311
  22. Stream size                              : 7.09 GiB (82%)
  23. Writing library                          : x264 core 148 r2748 97eaef2
  24. Encoding settings                        : cabac=1 / ref=4 / deblock=1:-2:-2 / analyse=0x3:0x113 / me=umh / subme=9 / psy=1 / psy_rd=1.00:0.15 / mixed_ref=1 / me_range=16 / chroma_me=1 / trellis=2 / 8x8dct=1 / cqm=0 / deadzone=21,11 / fast_pskip=1 / chroma_qp_offset=-3 / threads=72 / lookahead_threads=3 / sliced_threads=0 / nr=0 / decimate=1 / interlaced=0 / bluray_compat=0 / constrained_intra=0 / bframes=3 / b_pyramid=2 / b_adapt=1 / b_bias=0 / direct=3 / weightb=1 / open_gop=0 / weightp=2 / keyint=250 / keyint_min=25 / scenecut=40 / intra_refresh=0 / rc_lookahead=50 / rc=2pass / mbtree=1 / bitrate=11500 / ratetol=1.0 / qcomp=0.60 / qpmin=0 / qpmax=69 / qpstep=4 / cplxblur=20.0 / qblur=0.5 / vbv_maxrate=31250 / vbv_bufsize=31250 / nal_hrd=none / filler=0 / ip_ratio=1.40 / aq=1:1.00
  25. Language                                 : English
  26. Default                                  : Yes
  27. Forced                                   : No
  28. Audio
  29. ID                                       : 2
  30. ID in the original source medium         : 4353 (0x1101)
  31. Format                                   : DTS XLL
  32. Format/Info                              : Digital Theater Systems
  33. Commercial name                          : DTS-HD Master Audio
  34. Codec ID                                 : A_DTS
  35. Duration                                 : 1 h 28 min
  36. Bit rate mode                            : Variable
  37. Bit rate                                 : 2 599 kb/s
  38. Channel(s)                               : 6 channels
  39. Channel layout                           : C L R Ls Rs LFE
  40. Sampling rate                            : 48.0 kHz
  41. Frame rate                               : 93.750 FPS (512 SPF)
  42. Bit depth                                : 24 bits
  43. Compression mode                         : Lossless
  44. Stream size                              : 1.60 GiB (18%)
  45. Title                                    : DTS-HD MA 5.1
  46. Language                                 : English
  47. Default                                  : Yes
  48. Forced                                   : No
  49. Original source medium                   : Blu-ray
  50. Text
  51. ID                                       : 3
  52. Format                                   : UTF-8
  53. Codec ID                                 : S_TEXT/UTF8
  54. Codec ID/Info                            : UTF-8 Plain Text
  55. Duration                                 : 1 h 22 min
  56. Bit rate                                 : 44 b/s
  57. Count of elements                        : 961
  58. Stream size                              : 27.0 KiB (0%)
  59. Title                                    : English-SRT
  60. Language                                 : English
  61. Default                                  : Yes
  62. Forced                                   : No
  63. Menu
  64. 00:00:00.000                             : Chapter 01
  65. 00:07:28.656                             : Chapter 02
  66. 00:14:01.340                             : Chapter 03
  67. 00:19:38.010                             : Chapter 04
  68. 00:29:02.907                             : Chapter 05
  69. 00:35:38.511                             : Chapter 06
  70. 00:41:59.892                             : Chapter 07
  71. 00:50:04.876                             : Chapter 08
  72. 00:57:09.551                             : Chapter 09
  73. 01:04:17.144                             : Chapter 10
  74. 01:09:38.757                             : Chapter 11
  75. 01:16:40.178                             : Chapter 12
  76. 01:25:28.748                             : Chapter 13
复制代码





                                       
                                       

                                       
                                       
                                       




回复

使用道具 举报

懒得打字嘛,点击右侧快捷回复 【右侧内容,后台自定义】
您需要登录后才可以回帖 登录 | 立即加入

本版积分规则

Archiver|小黑屋| 蓝光电影网 |网站地图

Copyright © 2021 Comsenz Inc. Powered by 蓝光电影网

蓝光电影网

本站内容由用户自主分享和转载自互联网,转载目的在于传递更多信息,并不代表本网赞同其观点和对其真实性负责。

如有侵权、违反国家法律政策行为,请联系我们,我们会第一时间及时清除和处理!

举报反馈邮箱:[email protected]

快速回复 返回顶部 返回列表