找回密码

蓝光电影网

查看: 6|回复: 0

[动作] 虎胆悍将 Hard.Kill.2020.720p.BluRay.x264-PiGNUS 3.97GB

[复制链接]
蓝光币
382
发表于 2020-11-6 09:10:36 | 显示全部楼层 |阅读模式


◎译  名 虎胆悍将/Open Source/綁票追殺令(台)
◎片  名 Hard Kill
◎年  代 2020
◎产  地 美国
◎类  别 行动
◎语  言 英语
◎上映日期 2020-08-21(美国收集)
◎IMDb评分  4/10 from 4153 users
◎IMDb链接  https://www.imdb.com/title/tt11656172/
◎豆瓣评分 3.2/10 from 325 users
◎豆瓣链接 https://movie.douban.com/subject/34971648/
◎片  长 98分钟
◎导  演 马特·伊斯坎达里 Matt Eskandari
◎编  剧 乔·罗素 Joe Russo
◎主  演 布鲁斯·威利斯 Bruce Willis
       杰西·麦特卡尔菲 Jesse Metcalfe
       特夏斯·巴特尔 Texas Battle
       斯温·特梅尔 Swen Temmel
◎标  签 行动 | 2020 | 美国 | 烂片中的烂片 | 布鲁斯·威利斯 | 犯罪 | 磨叽 | 碟碟不休
◎简  介


  亿万富翁科技公司首席履行官多诺万·查尔莫斯的工作很是有代价,他雇佣雇佣兵来庇护它,一个可骇构造为此绑架了他的女儿以求获得它。
  1. Video
  2. ID                                       : 1
  3. Format                                   : AVC
  4. Format/Info                              : Advanced Video Codec
  5. Format profile                           : [email protected]
  6. Format settings                          : CABAC / 8 Ref Frames
  7. Format settings, CABAC                   : Yes
  8. Format settings, Reference frames        : 8 frames
  9. Codec ID                                 : V_MPEG4/ISO/AVC
  10. Duration                                 : 1 h 38 min
  11. Bit rate                                 : 5 123 kb/s
  12. Width                                    : 1 280 pixels
  13. Height                                   : 534 pixels
  14. Display aspect ratio                     : 2.40:1
  15. Frame rate mode                          : Constant
  16. Frame rate                               : 23.976 (24000/1001/189150) FPS
  17. Color space                              : YUV
  18. Chroma subsampling                       : 4:2:0
  19. Bit depth                                : 8 bits
  20. Scan type                                : Progressive
  21. Bits/(Pixel*Frame)                       : 0.313
  22. Stream size                              : 3.52 GiB (89%)
  23. Writing library                          : x264 core 161 r3027 4121277
  24. Encoding settings                        : cabac=1 / ref=8 / deblock=1:-3:-3 / analyse=0x3:0x133 / me=umh / subme=9 / psy=1 / psy_rd=1.00:0.00 / mixed_ref=1 / me_range=16 / chroma_me=1 / trellis=2 / 8x8dct=1 / cqm=0 / deadzone=21,11 / fast_pskip=1 / chroma_qp_offset=-2 / threads=17 / lookahead_threads=1 / sliced_threads=0 / nr=0 / decimate=1 / interlaced=0 / bluray_compat=0 / constrained_intra=0 / bframes=3 / b_pyramid=2 / b_adapt=2 / b_bias=0 / direct=3 / weightb=1 / open_gop=0 / weightp=2 / keyint=250 / keyint_min=23 / scenecut=40 / intra_refresh=0 / rc_lookahead=60 / rc=crf / mbtree=1 / crf=14.5 / qcomp=0.60 / qpmin=0 / qpmax=69 / qpstep=4 / ip_ratio=1.40 / aq=1:1.00
  25. Language                                 : English
  26. Default                                  : Yes
  27. Forced                                   : No

  28. Audio
  29. ID                                       : 2
  30. Format                                   : AC-3
  31. Format/Info                              : Audio Coding 3
  32. Commercial name                          : Dolby Digital
  33. Codec ID                                 : A_AC3
  34. Duration                                 : 1 h 38 min
  35. Bit rate mode                            : Constant
  36. Bit rate                                 : 640 kb/s
  37. Channel(s)                               : 6 channels
  38. Channel layout                           : L R C LFE Ls Rs
  39. Sampling rate                            : 48.0 kHz
  40. Frame rate                               : 31.250 FPS (1536 SPF)
  41. Compression mode                         : Lossy
  42. Stream size                              : 450 MiB (11%)
  43. Language                                 : English
  44. Service kind                             : Complete Main
  45. Default                                  : Yes
  46. Forced                                   : No

  47. Text
  48. ID                                       : 3
  49. Format                                   : PGS
  50. Muxing mode                              : zlib
  51. Codec ID                                 : S_HDMV/PGS
  52. Codec ID/Info                            : Picture based subtitle format used on BDs/HD-DVDs
  53. Duration                                 : 1 h 30 min
  54. Bit rate                                 : 24.4 kb/s
  55. Count of elements                        : 2280
  56. Stream size                              : 15.8 MiB (0%)
  57. Title                                    : English SDH
  58. Language                                 : English
  59. Default                                  : No
  60. Forced                                   : No

  61. Menu
  62. 00:00:00.000                             : 00:00:00.000
  63. 00:16:07.342                             : 00:16:07.342
  64. 00:34:45.709                             : 00:34:45.709
  65. 00:53:51.520                             : 00:53:51.520
  66. 01:09:08.770                             : 01:09:08.770
  67. 01:29:56.266                             : 01:29:56.266
复制代码




                                       
                                       

                                       
                                       
                                       




回复

使用道具 举报

懒得打字嘛,点击右侧快捷回复 【右侧内容,后台自定义】
您需要登录后才可以回帖 登录 | 立即加入

本版积分规则

Archiver|小黑屋| 蓝光电影网 |网站地图

Copyright © 2021 Comsenz Inc. Powered by 蓝光电影网

蓝光电影网

本站内容由用户自主分享和转载自互联网,转载目的在于传递更多信息,并不代表本网赞同其观点和对其真实性负责。

如有侵权、违反国家法律政策行为,请联系我们,我们会第一时间及时清除和处理!

举报反馈邮箱:[email protected]

快速回复 返回顶部 返回列表